2 сезон

iTunes

MVO

1

2 сезон

iTunes

iTunes

1 сезон

RePack

30

Новинка

ВАЖНО

ИГРА 18+

pack

RePack

MK11
pack

Легкие деньги

RePack

jed

RePack

fifa19

RePack

RDR2

RePack

NEED FOR SPEED™ PAYBACK

4 сезон

9 сезон

Бесстыжие 9 сезон

Все сериалы

все сериалы на PB.wtf

RePack

FAR CRY 5

Anonymous, добрый вечер, мы не успеваем собрать деньги на оплату серверов за декабрь и январь, помогите нам пожалуйста в это трудное время. В качестве благодарности мы отключим Вам всю рекламу на сайте (укажите свой ник в строку Ваше имя)!

×
  
Magnet ссылка

Жена смотрителя зоопарка / The Zookeeper's Wife (Ники Каро) [2017 г., драма, военный, биография, история, WEB-DLRip, Дубляж "iTunes"] pb.wtf

Жена смотрителя зоопарка через торрент pb.wtf

Размер: 2.17 GB | Добавлен: 3 года 8 мес. назад | Торрент скачан:251 раз
Скачать  

16-05-2017 17:51 Жена смотрителя зоопарка Скачать торрент  

Жена смотрителя зоопарка / The Zookeeper's Wife
Год выпуска: 2017
Страна: Чехия, Великобритания, США / Scion Films, Czech Anglo Productions, LD Entertainment
Жанр: драма, военный, биография, история
Продолжительность: 02:01:19
Перевод: Дубляж (iTunes)

Режиссер: Ники Каро

rating

В ролях: Джессика Честейн, Йохан Хелденберг, Даниэль Брюль, Тимоти Редфорд, Эфрат Дор, Иддо Голдберг, Шира Хаас, Майкл МакЭлхаттон, Вэл Малоку, Марта Иссова

Описание: Реальная история отважного подвига смотрителей Варшавского зоопарка Яна и Антонины Жабинских, давших убежище и сохранивших жизнь более, чем 300 евреям во время II Мировой войны. Ежедневный риск и опасность осложняются для Жабинских взаимоотношениями с бывшим другом семьи, а ныне высокопоставленным нацистским чиновником Лутцем Хеком, влюбленным в Антонину.

Качество: WEB-DLRip
Формат: AVI
Видео кодек: XviD
Аудио кодек: AC3
Видео: 720x304 (2.37:1), 25 fps, XviD build 50 ~2174 kbps avg, 0.40 bit/pixel
Аудио: 48 kHz, AC3 Dolby Digital, 3/2 (L,C,R,l,r) + LFE ch, ~384 kbps

Общее
Полное имя : F:\ФИЛЬМЫ\Жена смотрителя зоопарка.2017.D.WEB-DLRip.avi
Формат : AVI
Формат/Информация : Audio Video Interleave
Профиль формата : OpenDML
Размер файла : 2,17 Гбайт
Продолжительность : 2 ч. 1 м.
Общий поток : 2565 Кбит/сек
Программа кодирования : VirtualDubMod 1.5.10.3 | www.virtualdub-fr.org || (build 2550/release)
Библиотека кодирования : VirtualDubMod build 2550/release

Видео
Идентификатор : 0
Формат : MPEG-4 Visual
Профиль формата : Advanced Simple@L5
Параметр BVOP формата : 1
Параметр QPel формата : Нет
Параметр GMC формата : Без точки перехода
Параметр матрицы формата : Default (MPEG)
Идентификатор кодека : XVID
Идентификатор кодека/Подсказка : XviD
Продолжительность : 2 ч. 1 м.
Битрейт : 2169 Кбит/сек
Ширина : 720 пикселей
Высота : 304 пикселя
Соотношение сторон : 2,35:1
Частота кадров : 25,000 кадров/сек
Цветовое пространство : YUV
Субдискретизация насыщенности : 4:2:0
Битовая глубина : 8 бит
Тип развёртки : Прогрессивная
Метод сжатия : С потерями
Бит/(Пиксели*Кадры) : 0.396
Размер потока : 1,84 Гбайт (85%)
Библиотека кодирования : XviD 1.2.1 (UTC 2008-12-04)

Аудио
Идентификатор : 1
Формат : AC-3
Формат/Информация : Audio Coding 3
Параметр Endianness формата : Big
Идентификатор кодека : 2000
Продолжительность : 2 ч. 1 м.
Вид битрейта : Постоянный
Битрейт : 384 Кбит/сек
Каналы : 6 каналов
Расположение каналов : Front: L C R, Side: L R, LFE
Частота : 48,0 КГц
Частота кадров : 31,250 кадров/сек (1536 spf)
Битовая глубина : 16 бит
Метод сжатия : С потерями
Размер потока : 333 Мбайт (15%)
Выравнивание : Разделение по промежуткам
Продолжительность промежутка : 40 мс. (1,00 видеокадр)
Время предзагрузки промежутка : 500 мс.
ServiceKind/String : Complete Main

pb.wtf



Скачать Жена смотрителя зоопарка через торрент http://pic1.kartinco.top/images/11/oh7s2.jpg Скачать фильм Жена смотрителя зоопарка через торрент бесплантно в хорошем качестве Описание: Реальная история отважного подвига смотрителей Варшавского зоопарка Яна и Антонины Жабинских, давших убежище и сохранивших жизнь ... 6.5 10 6
Торрент: Зарегистрирован [2017-05-16 17:51] · скачан: 251 раз
Статус: √ проверено
Размер: 2.17 GB
Как cкачать? Как скачать Жена смотрителя зоопарка через торрент | UTorrent

28-11-2019 20:33  

Отключить всю рекламу на сайте

    Дорогой пользователь! Огромная просьба, поблагодарите релизера, оцените раздачу и оставьте свои комментарий, если Вы скачали Жена смотрителя зоопарка через торрент бесплатно! Внесите свою лепту в развитие PiratBit!
    Комментировать посты могут только пользователи прошедшие не сложную регистрацию
    Показать сообщения:    

    Жена смотрителя зоопарка через торрент
    Скачать бесплатно Жена смотрителя зоопарка
    Жена смотрителя зоопарка скачать торрент
    Жена смотрителя зоопарка смотреть онлайн
    Cкачать фильм Жена смотрителя зоопарка бесплатно
    Жена смотрителя зоопарка скачать торрент в хорошем качестве
    Жена смотрителя зоопарка смотреть онлайн бесплатно в хорошем качестве


    Вы не можете начинать темы
    Вы не можете отвечать на сообщения
    Вы не можете редактировать свои сообщения
    Вы не можете удалять свои сообщения
    Вы не можете голосовать в опросах
    Вы не можете прикреплять файлы к сообщениям
    Вы можете скачивать файлы