2 сезон

iTunes

1 сезон

1

iTunes

iTunes

iTunes

1 сезон

RePack

30

ИГРА 18+

pack

ВАЖНО

!!Акция!!

Alien_RageХит недели

RePack

MK11
pack

Забери бонус

RePack

jed

!!Акция!!

Alien_Rage

RePack

fifa19

RePack

Assassins Creed: Odyssey

RePack

NEED FOR SPEED™ PAYBACK

4 сезон

9 сезон

Бесстыжие 9 сезон

Все сериалы

все сериалы на PB.wtf

RePack

FAR CRY 5
  

Паромщик / Barquero (Гордон Дуглас) [1970, вестерн, BDRip 720p by msltel] DVO, AVO pb.wtf

Паромщик через торрент pb.wtf

Размер: 4.62 GB | Добавлен: 3 года 5 мес. назад | Торрент скачан:24 раза
Скачать  

17-05-2017 05:32 Паромщик Скачать торрент  

Название: Паромщик
Оригинальное название: Barquero
Год выпуска: 1970
Страна: США
Жанр: вестерн
Продолжительность: 01:48:58
Перевод: профессиональный двухголосый, авторский

Режиссёр: Гордон Дуглас

В ролях: Ли Ван Клиф, Уоррен Оутс, Форрест Такер, Кервин Мэтьюз, Мэриетт Хартли, Мари Гомез, Армандо Силвестри, Джон Дэвис Чандлер, Крэйг Литтлер, Эд Бейки, Гарри Лоутер, Арманд Альзамора, Фрэнк Бабич, Бенни Е. Доббинс, Рита Конде

Описание: Маленький городок недалеко от границы с Мексикой переживает нападение бандитов-повстанцев. Захватив оружие, они продвигаются к границе, чтобы уйти в Мексику и продолжить свою революционную борьбу. Как и все революционеры, они люди упёртые и ни перед чем не останавливающиеся. Но натыкаются на одно малозначительное препятствие — паромщика «Баркуэро». Он никак не хочет разделить их революционные взгляды и отдать им свой паром. А другим способом переправиться через реку невозможно...



Качество: BDRip 720p
Формат: MKV
Видео: MPEG-4 AVC, 5495 Кбит/с, 1280x694
Аудио 1: русский, AC3, 192 kbps, 2 ch, 48 kHz [профессиональный двухголосый, HTB+]
Аудио 2: русский, AC3, 192 kbps, 2 ch, 48 kHz [авторский, Сергей Кузнецов]
Аудио 3: английский, AC3, 192 kbps, 2 ch, 48 kHz [оригинал]
Имеются неименованные главы/чаптеры.
Общее
Уникальный идентификатор : 186524394907848608253928024766972914384 (0x8C534AB034750C3CB85D86A6C4036AD0)
Полное имя : D:\Video\Паромщик.1970.BDRip.720p by msltel.mkv
Формат : Matroska
Версия формата : Version 4 / Version 2
Размер файла : 4,62 Гбайт
Продолжительность : 1 ч. 48 м.
Общий поток : 6073 Кбит/сек
Название фильма : Rip by msltel
Дата кодирования : UTC 2017-05-16 17:40:42
Программа кодирования : mkvmerge v8.2.0 ('World of Adventure') 64bit
Библиотека кодирования : libebml v1.3.1 + libmatroska v1.4.2

Видео
Идентификатор : 1
Формат : AVC
Формат/Информация : Advanced Video Codec
Профиль формата : High@L4.1
Параметр CABAC формата : Да
Параметр ReFrames формата : 9 кадров
Идентификатор кодека : V_MPEG4/ISO/AVC
Продолжительность : 1 ч. 48 м.
Битрейт : 5495 Кбит/сек
Ширина : 1280 пикселей
Высота : 694 пикселя
Соотношение сторон : 1,85:1
Режим частоты кадров : Постоянный
Частота кадров : 23,976 (24000/1001) кадра/сек
Цветовое пространство : YUV
Субдискретизация насыщенности : 4:2:0
Битовая глубина : 8 бит
Тип развёртки : Прогрессивная
Бит/(Пиксели*Кадры) : 0.258
Размер потока : 4,18 Гбайт (90%)
Библиотека кодирования : x264 core 146 r2538 121396c
Настройки программы : cabac=1 / ref=9 / deblock=1:-3:-2 / analyse=0x3:0x113 / me=umh / subme=11 / psy=1 / psy_rd=1.00:0.15 / mixed_ref=1 / me_range=32 / chroma_me=1 / trellis=2 / 8x8dct=1 / cqm=0 / deadzone=21,11 / fast_pskip=0 / chroma_qp_offset=-3 / threads=6 / lookahead_threads=1 / sliced_threads=0 / nr=0 / decimate=1 / interlaced=0 / bluray_compat=0 / constrained_intra=0 / bframes=7 / b_pyramid=2 / b_adapt=2 / b_bias=0 / direct=1 / weightb=1 / open_gop=0 / weightp=2 / keyint=230 / keyint_min=23 / scenecut=40 / intra_refresh=0 / rc_lookahead=40 / rc=crf / mbtree=0 / crf=18.4 / qcomp=0.60 / qpmin=0 / qpmax=69 / qpstep=4 / vbv_maxrate=62500 / vbv_bufsize=78125 / crf_max=0.0 / nal_hrd=none / filler=0 / ip_ratio=1.40 / pb_ratio=1.30 / aq=1:1.00
Язык : English
Default : Да
Forced : Нет

Аудио #1
Идентификатор : 2
Формат : AC-3
Формат/Информация : Audio Coding 3
Параметр Endianness формата : Big
Идентификатор кодека : A_AC3
Продолжительность : 1 ч. 48 м.
Вид битрейта : Постоянный
Битрейт : 192 Кбит/сек
Каналы : 2 канала
Расположение каналов : Front: L R
Частота : 48,0 КГц
Частота кадров : 31,250 кадров/сек (1536 spf)
Битовая глубина : 16 бит
Метод сжатия : С потерями
Размер потока : 150 Мбайт (3%)
Заголовок : DVO (HTB+)
Язык : Russian
ServiceKind/String : Complete Main
Default : Да
Forced : Нет

Аудио #2
Идентификатор : 3
Формат : AC-3
Формат/Информация : Audio Coding 3
Параметр Endianness формата : Big
Идентификатор кодека : A_AC3
Продолжительность : 1 ч. 48 м.
Вид битрейта : Постоянный
Битрейт : 192 Кбит/сек
Каналы : 2 канала
Расположение каналов : Front: L R
Частота : 48,0 КГц
Частота кадров : 31,250 кадров/сек (1536 spf)
Битовая глубина : 16 бит
Метод сжатия : С потерями
Размер потока : 150 Мбайт (3%)
Заголовок : AVO (Сергей Кузнецов)
Язык : Russian
ServiceKind/String : Complete Main
Default : Нет
Forced : Нет

Аудио #3
Идентификатор : 4
Формат : AC-3
Формат/Информация : Audio Coding 3
Параметр Endianness формата : Big
Идентификатор кодека : A_AC3
Продолжительность : 1 ч. 48 м.
Вид битрейта : Постоянный
Битрейт : 192 Кбит/сек
Каналы : 2 канала
Расположение каналов : Front: L R
Частота : 48,0 КГц
Частота кадров : 31,250 кадров/сек (1536 spf)
Битовая глубина : 16 бит
Метод сжатия : С потерями
Размер потока : 150 Мбайт (3%)
Заголовок : original
Язык : English
ServiceKind/String : Complete Main
Default : Нет
Forced : Нет

Меню
00:00:00.000 : :Chapter 01
00:03:03.181 : :Chapter 02
00:15:22.796 : :Chapter 03
00:26:34.718 : :Chapter 04
00:35:17.155 : :Chapter 05
00:41:52.300 : :Chapter 06
00:54:52.706 : :Chapter 07
01:02:01.717 : :Chapter 08
01:10:07.243 : :Chapter 09
01:24:45.872 : :Chapter 10
01:37:10.908 : :Chapter 11
01:48:23.829 : :Chapter 12
01:48:57.238 : :Chapter 13
pb.wtf



Скачать Паромщик через торрент http://s019.radikal.ru/i629/1705/3a/182a5befecdf.jpg Скачать фильм Паромщик через торрент бесплантно в хорошем качестве Описание: Маленький городок недалеко от границы с Мексикой переживает нападение бандитов-повстанцев. Захватив оружие, они продвигаются к ... 9.8 10 5
Info! Золотая раздача, скачанное не засчитывается.
Торрент: Зарегистрирован [2017-05-17 05:32] · скачан: 24 раз
Статус: √ проверено
Размер: 4.62 GB
Как cкачать? Как скачать Паромщик через торрент | qTorrent

% Раздел Тема Автор DL S | L
Фильмы [HD 720p, 1080p] (Хороший звук DUB, MVO) [ 10.78 GB ] Паромщик / Barquero [1970 BDRip 1080p by msltel] DVO AVO msltel Скачать
1 | 0

28-11-2019 20:33  

Отключить всю рекламу на сайте

    Дорогой пользователь! Огромная просьба, поблагодарите релизера, оцените раздачу и оставьте свои комментарий, если Вы скачали Паромщик через торрент бесплатно! Внесите свою лепту в развитие PiratBit!
    Комментировать посты могут только пользователи прошедшие не сложную регистрацию
    Показать сообщения:    

    Паромщик через торрент
    Скачать бесплатно Паромщик
    Паромщик скачать торрент
    Паромщик смотреть онлайн
    Cкачать фильм Паромщик бесплатно
    Паромщик скачать торрент в хорошем качестве
    Паромщик смотреть онлайн бесплатно в хорошем качестве


    Вы не можете начинать темы
    Вы не можете отвечать на сообщения
    Вы не можете редактировать свои сообщения
    Вы не можете удалять свои сообщения
    Вы не можете голосовать в опросах
    Вы не можете прикреплять файлы к сообщениям
    Вы можете скачивать файлы