Ссылка на приватное зеркало всего за 1$. Внимание количество ограничено!!!

iTunes

iTunes

iTunes

1

iTunes

iTunes

iTunes

iTunes

iTunes

30
pack

$ от Little Big

ВАЖНО

!!Акция!!

Alien_RageХит недели

RePack

Resident Evil 21

ИГРА 18+

pack

RePack

jed

!!Акция!!

Alien_Rage

RePack

fifa19

RePack

Assassins Creed: Odyssey

RePack

NEED FOR SPEED™ PAYBACK

4 сезон

9 сезон

Бесстыжие 9 сезон

Все сериалы

все сериалы на PB.wtf

RePack

FAR CRY 5
  

Ночь в Париже / Ouvert la Nuit (Эдуард Баэр) [2016, Драма, комедия, WEB-DL 1080p] MVO [iTunes] pb.wtf

Ночь в Париже через торрент pb.wtf

Размер: 3.62 GB | Добавлен: 3 года 1 мес. назад | Торрент скачан:107 раз
Скачать  

17-05-2017 06:05 Ночь в Париже Скачать торрент  

Ночь в Париже / Ouvert la Nuit
Год выпуска: 2016
Страна: Франция
Жанр: Драма, комедия
Продолжительность: 01:36:54
Перевод: Профессиональный многоголосый - [iTunes]
Субтитры: отсутствуют

Режиссер: Эдуард Баэр

rating

В ролях:

Одри Тоту, Эдуард Баэр, Сабрина Уазани, Кристоф Мейне, Жан-Мишель Лами, Грегори Гадебуа, Патрик Бошарт, Мари-Анж Каста, Алка Балбир, Лионель Абелански

Описание:

Ночной Париж – исключительно подходящее место для всевозможных иррациональных решений. Директор небольшого театра Луиджи, считающий себя неотразимым сердцеедом, «утопает» в непомерных долгах. Единственное, что может спасти его от банкротства – завтрашняя премьера оригинального спектакля с живой обезьяной в главной роли, способного принести немалые дивиденды. Однако реализация плана требует капитала для приобретения обезьяны, а потому новоявленный Казанова отправляется на многообещающую прогулку по ночному Парижу, где рассчитывает найти женщин-меценаток, желающих материально поддержать интересного мужчину… Рассвет в Париже прекрасен и несет надежду на позитивность атмосферы нового дня, но принесет ли он удачное разрешение проблемы нашему герою Луиджи

Качество: WEB-DL 1080p
Формат: MKV
Видео кодек: H.264
Аудио кодек: AC3

Видео: 1920x1038 (1.850), 25.000 fps, AVC MPEG-4 (x264), High@L4.1, ~ 5 084 Kbps, 0.102 bit/pixel
Аудио#1: Русский: 48 kHz/16 bits, AC3, 5.1 ch, ~384 kbps avg. [Профессиональный (многоголосый закадровый), iTunes]
Общее
Уникальный идентификатор : 222987557356134941321892695856070683182 (0xA7C1D765956F17D48F2584EF1E126A2E)
Полное имя : C:NNM_2Ночь в ПарижеNochj v Parizhe 2016 WEB-DL 1080p-LQ.mkv
Формат : Matroska
Версия формата : Version 2
Размер файла : 3,62 Гбайт
Продолжительность : 1 ч. 32 м.
Общий поток : 5579 Кбит/сек
Дата кодирования : UTC 2017-04-06 19:51:33
Программа кодирования : mkvmerge v3.4.0 ('Rapunzel') built on May 15 2010 09:38:20
Библиотека кодирования : libebml v0.8.0 + libmatroska v0.9.0

Видео
Идентификатор : 1
Формат : AVC
Формат/Информация : Advanced Video Codec
Профиль формата : High@L4
Параметр CABAC формата : Да
Параметр ReFrames формата : 4 кадра
Идентификатор кодека : V_MPEG4/ISO/AVC
Продолжительность : 1 ч. 32 м.
Битрейт : 5084 Кбит/сек
Ширина : 1920 пикселей
Высота : 1038 пикселей
Соотношение сторон : 1,85:1
Режим частоты кадров : Постоянный
Частота кадров : 25,000 кадров/сек
Цветовое пространство : YUV
Субдискретизация насыщенности : 4:2:0
Битовая глубина : 8 бит
Тип развёртки : Прогрессивная
Бит/(Пиксели*Кадры) : 0.102
Размер потока : 3,30 Гбайт (91%)
Язык : French
Default : Да
Forced : Нет
Цветовой диапазон : Limited
Основные цвета : BT.709
Характеристики трансфера : BT.709
Коэффициенты матрицы : BT.709

Аудио
Идентификатор : 2
Формат : AC-3
Формат/Информация : Audio Coding 3
Расширение режима : CM (complete main)
Параметр Endianness формата : Big
Идентификатор кодека : A_AC3
Продолжительность : 1 ч. 32 м.
Вид битрейта : Постоянный
Битрейт : 384 Кбит/сек
Каналы : 6 каналов
Расположение каналов : Front: L C R, Side: L R, LFE
Частота : 48,0 КГц
Частота кадров : 31,250 кадров/сек (1536 spf)
Битовая глубина : 16 бит
Метод сжатия : С потерями
Размер потока : 255 Мбайт (7%)
Заголовок : AC3 5.1 @ 384 kbps - MVO, iTunes
Язык : Russian
Default : Да
Forced : Нет

Меню
00:00:00.000 : en:1
00:06:40.760 : en:2
00:12:04.280 : en:3
00:18:10.240 : en:4
00:24:57.640 : en:5
00:30:49.360 : en:6
00:37:32.200 : en:7
00:42:29.480 : en:8
00:49:02.480 : en:9
00:54:50.640 : en:10
00:58:28.960 : en:11
01:02:58.600 : en:12
01:11:00.080 : en:13
01:15:58.280 : en:14
01:21:45.920 : en:15

скриншот   скриншот   скриншот   скриншот  
pb.wtf



Скачать Ночь в Париже через торрент http://rudb.org/img/2017_05/i591bb9e2c16a7.jpg Скачать фильм Ночь в Париже через торрент бесплантно в хорошем качестве Описание: Ночной Париж – исключительно подходящее место для всевозможных иррациональных решений. Директор небольшого театра Луиджи, ... 10 10 4
Торрент: Зарегистрирован [2017-05-17 06:05] · скачан: 107 раз
Статус: √ проверено
Размер: 3.62 GB
Как cкачать? Как скачать Ночь в Париже через торрент | qTorrent

% Раздел Тема Автор DL S | L
Фильмы (Blu-ray, BD-Remux, HDDVD) [ 26.29 GB ] Ночь в Париже / Ouvert la Nuit [2016 BD Remux 1080p] MVO bober100 Скачать
1 | 0
Фильмы 2016 [DVDrip, WEB-DLRip, HDrip] (DUB, MVO) [ 1.46 GB ] Ночь в Париже / Ouvert la nuit [2016 WEB-DLRip многоголосый закадровый ""] coc900 Скачать
1 | 0

28-11-2019 20:33  

Отключить всю рекламу на сайте

    Дорогой пользователь! Огромная просьба, поблагодарите релизера, оцените раздачу и оставьте свои комментарий, если Вы скачали Ночь в Париже через торрент бесплатно! Внесите свою лепту в развитие PiratBit!
    Комментировать посты могут только пользователи прошедшие не сложную регистрацию
    Показать сообщения:    

    Ночь в Париже через торрент
    Скачать бесплатно Ночь в Париже
    Ночь в Париже скачать торрент
    Ночь в Париже смотреть онлайн
    Cкачать фильм Ночь в Париже бесплатно
    Ночь в Париже скачать торрент в хорошем качестве
    Ночь в Париже смотреть онлайн бесплатно в хорошем качестве


    Вы не можете начинать темы
    Вы не можете отвечать на сообщения
    Вы не можете редактировать свои сообщения
    Вы не можете удалять свои сообщения
    Вы не можете голосовать в опросах
    Вы не можете прикреплять файлы к сообщениям
    Вы можете скачивать файлы