Ссылка на приватное зеркало нашего сайта всего за 1$. Внимание количество ограничено!!!

2 сезон

iTunes

1 сезон

1

iTunes

iTunes

iTunes

1 сезон

RePack

30

ИГРА 18+

pack

ВАЖНО

!!Акция!!

Alien_RageХит недели

RePack

MK11
pack

Забери бонус

RePack

jed

!!Акция!!

Alien_Rage

RePack

fifa19

RePack

Assassins Creed: Odyssey

RePack

NEED FOR SPEED™ PAYBACK

4 сезон

9 сезон

Бесстыжие 9 сезон

Все сериалы

все сериалы на PB.wtf

RePack

FAR CRY 5
  

Смягчающие обстоятельства / Серии: 1-2 из 2 (Игорь Мужжухин, Сергей Васьковский) [2017, мелодрама, HDTVRip 720p] pb.wtf

Смягчающие обстоятельства через торрент pb.wtf

Размер: 4.66 GB | Добавлен: 3 года 5 мес. назад | Торрент скачан:34 раза
Скачать  

17-05-2017 13:22 Смягчающие обстоятельства Скачать торрент  

Смягчающие обстоятельства (1-2 серии из 2)
Год выпуска: 2017
Страна: Россия
Жанр: мелодрама
Продолжительность: 2 x ~ 01:30:00
Субтитры: отсутствуют

Режиссер: Игорь Мужжухин, Сергей Васьковский



В ролях:

Екатерина Рябова, Илья Оболонков, Екатерина Травова, Максим Щёголев, Игорь Гудеев, Валерия Моисеева, Алексей Сидоров (II), Анатолий Котенёв, Людмила Гаврилова, Галина Гусева, Татьяна Смоляницкая, Лариса Бедненко, Владимир Довжик, Светлана Виноградова

Описание:

В талантливую и красивую пианистку Юлю с первого взгляда влюбляется симпатичный чиновник Сергей, и вскоре они играют свадьбу. Но семейное счастье оказывается недолгим – авария со смертельным исходом по вине Сергея оборачивается кошмаром для Юли. Ей предстоят страшные испытания - срок в колонии, предательство любимого мужа... Но Юле во что бы то ни стало нужно выстоять - ведь судьба уготовила ей встречу с настоящей любовью..

Качество: HDTVRip 720p
Формат: MKV
Видео кодек: H.264
Аудио кодек: AC3

Видео: 1280х720 (16:9), 25 fps, AVC MPEG-4 (x264), High@L4.1 ~ 3500 kbps , 0.152 bit/pixel
Аудио#1: 48 kHz, AC3, 2/0 (L,R) ch, ~192 kbps

скриншот   скриншот   скриншот   скриншот  

Общее
Уникальный идентификатор : 216365517955611736773820723381950297955 (0xA2C67BA5A634064AA1C20C1BBFF53763)
Полное имя : C:\Smjagchajushhie.obstojatelstva.2017.HDTVRip.(720p).\Smjagchajushhie.obstojatelstva.(01.seriya.iz.02).2017.HDTVRip.(720p).mkv
Формат : Matroska
Версия формата : Version 4 / Version 2
Размер файла : 2,31 Гбайт
Продолжительность : 1 ч. 29 м.
Общий поток : 3694 Кбит/сек
Дата кодирования : UTC 2017-05-15 03:04:11
Программа кодирования : mkvmerge v7.8.0 ('River Man') 32bit built on Apr 3 2015 12:11:22
Библиотека кодирования : libebml v1.3.1 + libmatroska v1.4.2

Видео
Идентификатор : 1
Формат : AVC
Формат/Информация : Advanced Video Codec
Профиль формата : High@L4.1
Параметр CABAC формата : Да
Параметр ReFrames формата : 9 кадров
Идентификатор кодека : V_MPEG4/ISO/AVC
Продолжительность : 1 ч. 29 м.
Битрейт : 3500 Кбит/сек
Ширина : 1280 пикселей
Высота : 720 пикселей
Соотношение сторон : 16:9
Режим частоты кадров : Постоянный
Частота кадров : 25,000 кадров/сек
Цветовое пространство : YUV
Субдискретизация насыщенности : 4:2:0
Битовая глубина : 8 бит
Тип развёртки : Прогрессивная
Бит/(Пиксели*Кадры) : 0.152
Размер потока : 2,15 Гбайт (93%)
Библиотека кодирования : x264 core 146 r2538 121396c
Настройки программы : cabac=1 / ref=9 / deblock=1:-3:-3 / analyse=0x3:0x113 / me=umh / subme=11 / psy=1 / psy_rd=1.00:0.20 / mixed_ref=1 / me_range=32 / chroma_me=1 / trellis=2 / 8x8dct=1 / cqm=0 / deadzone=21,11 / fast_pskip=1 / chroma_qp_offset=-3 / threads=6 / lookahead_threads=1 / sliced_threads=0 / nr=0 / decimate=0 / interlaced=0 / bluray_compat=0 / constrained_intra=0 / bframes=11 / b_pyramid=2 / b_adapt=2 / b_bias=0 / direct=3 / weightb=1 / open_gop=0 / weightp=2 / keyint=250 / keyint_min=25 / scenecut=40 / intra_refresh=0 / rc_lookahead=60 / rc=2pass / mbtree=1 / bitrate=3500 / ratetol=1.0 / qcomp=0.60 / qpmin=0 / qpmax=69 / qpstep=4 / cplxblur=20.0 / qblur=0.5 / vbv_maxrate=14000 / vbv_bufsize=14000 / nal_hrd=none / filler=0 / ip_ratio=1.40 / aq=3:1.00
Default : Нет
Forced : Нет
Цветовой диапазон : Limited
Основные цвета : BT.709
Характеристики трансфера : BT.709
Коэффициенты матрицы : BT.709

Аудио
Идентификатор : 2
Формат : AC-3
Формат/Информация : Audio Coding 3
Параметр Endianness формата : Big
Идентификатор кодека : A_AC3
Продолжительность : 1 ч. 29 м.
Вид битрейта : Постоянный
Битрейт : 192 Кбит/сек
Каналы : 2 канала
Расположение каналов : Front: L R
Частота : 48,0 КГц
Частота кадров : 31,250 кадров/сек (1536 spf)
Битовая глубина : 16 бит
Метод сжатия : С потерями
Размер потока : 123 Мбайт (5%)
Язык : Russian
ServiceKind/String : Complete Main
Default : Да
Forced : Да

pb.wtf



Скачать Смягчающие обстоятельства через торрент http://s018.radikal.ru/i503/1705/99/bf1465c5cd99.jpg Скачать фильм Смягчающие обстоятельства через торрент бесплантно в хорошем качестве Описание: В талантливую и красивую пианистку Юлю с первого взгляда влюбляется симпатичный чиновник Сергей, и вскоре они играют свадьбу. Но ... 10 10 3
Торрент: Зарегистрирован [2017-05-17 13:22] · скачан: 34 раз
Статус: √ проверено
Размер: 4.66 GB
Как cкачать? Как скачать Смягчающие обстоятельства через торрент | qTorrent

28-11-2019 20:33  

Отключить всю рекламу на сайте

    Дорогой пользователь! Огромная просьба, поблагодарите релизера, оцените раздачу и оставьте свои комментарий, если Вы скачали Смягчающие обстоятельства через торрент бесплатно! Внесите свою лепту в развитие PiratBit!
    Комментировать посты могут только пользователи прошедшие не сложную регистрацию
    Показать сообщения:    

    Смягчающие обстоятельства через торрент
    Скачать бесплатно Смягчающие обстоятельства
    Смягчающие обстоятельства скачать торрент
    Смягчающие обстоятельства смотреть онлайн
    Cкачать фильм Смягчающие обстоятельства бесплатно
    Смягчающие обстоятельства скачать торрент в хорошем качестве
    Смягчающие обстоятельства смотреть онлайн бесплатно в хорошем качестве


    Вы не можете начинать темы
    Вы не можете отвечать на сообщения
    Вы не можете редактировать свои сообщения
    Вы не можете удалять свои сообщения
    Вы не можете голосовать в опросах
    Вы не можете прикреплять файлы к сообщениям
    Вы можете скачивать файлы