>

7.4

iTunes

7.4

2 сезон

9.4

1 сезон

1

7.4

2 сезон

7.2

iTunes

6.0

MVO

13

6.1

iTunes

8.3

Пиратка

30

ULTIMATE

pack

9.9

Лицензия

ВАЖНО

ИГРА 18+

pack

7.3

RePack

MK11

7.7

RePack

jed

7.8

RePack

fifa19

8.5

RePack

RDR2

RePack

NEED FOR SPEED™ PAYBACK

1 сезон

9 сезон

Бесстыжие 9 сезон

Все сериалы

все сериалы на PB.wtf

RePack

FAR CRY 5

Anonymous, доброе утро, мы катастрофически не успеваем собрать деньги на оплату серверов, помогите нам пожалуйста 5,10,15р., для нас важна любая помощь . В качестве благодарности мы отключим Вам всю рекламу на сайте (укажите свой ник в строку Ваше имя)!

×
  
Magnet ссылка

Караульный пост 506 / GP506 (Су-Чанг Куенг) [2008 г., драма, триллер, BDRip 720p, AVO, VO] pb.wtf

Караульный пост 506 через торрент pb.wtf

Размер: 4.54 GB | Добавлен: 4 года 7 мес. назад | Торрент скачан:22 раза
Смотреть онлайн Караульный пост 506 | Скачать    Ребята, помогите собрать деньги на оплату серверов!!!

17-05-2017 16:57 Караульный пост 506 Скачать торрент  

Караульный пост 506 / GP506Год выпуска: 2008
Страна: Корея Южная
Жанр: драма, триллер
Продолжительность: 02:01:05
Перевод: Авторский закадровый [Ю.Сербин], профессиональный одноголосый, закадровый [Интерфильм]
Субтитры: отсутствуют

Режиссер: Су-Чанг Куенг
В ролях: Чхон Хо-джин, Чо Хён-джэ, Чхве Гю-хван, Бён-Чхоль До, Чо Джин-ун, Ким Бён-чхоль, Сон-пом Ким, Ку Сон-хван, Чхоль-хи Ли, Ли Джон-хон

rating

Описание: Когда отряд караульного поста 506 не вышел на связь в положенное время, власти заволновались. На пост прибывает разведывательный отряд...

Качество: BDRip 720p
Формат: MKV
Видео кодек: H.264
Аудио кодек: AC3
Видео: AVC, 1280x694 (16:9), 24 fps ~ 4275 Kbps
Аудио#1: 48 KHz 2 ch ~ 192 Kb/s (Сербин)
Аудио#2: 48 KHz 6 ch ~ 448 Kb/s (Интерфильм)
Аудио#3: 48 KHz 6 ch ~ 448 Kb/s (корейский)
скриншот   скриншот   скриншот   скриншот   скриншот   скриншот   скриншот  

Общее
Уникальный идентификатор : 198936941658998796645808148861741490026 (0x95A9DC7E10748DE09AD8B0EBD430DF6A)
Полное имя : Q:TorFСТОРОЖЕВОЙ ПОСТ(AVO+VO).2008.BluRay.720p.AC3.x264-lord_i_74.mkv
Формат : Matroska
Версия формата : Version 2
Размер файла : 4,54 Гбайт
Продолжительность : 2 ч. 1 м.
Общий поток : 5365 Кбит/сек
Дата кодирования : UTC 2012-05-04 10:55:05
Программа кодирования : mkvmerge v5.0.1 ('Es ist Sommer') built on Oct 9 2011 11:55:43
Библиотека кодирования : libebml v1.2.2 + libmatroska v1.3.0

Видео
Идентификатор : 1
Формат : AVC
Формат/Информация : Advanced Video Codec
Профиль формата : High@L4.1
Параметр CABAC формата : Да
Параметр ReFrames формата : 9 кадров
Идентификатор кодека : V_MPEG4/ISO/AVC
Продолжительность : 2 ч. 1 м.
Битрейт : 4276 Кбит/сек
Ширина : 1280 пикселей
Высота : 694 пикселя
Соотношение сторон : 16:9
Частота кадров : 24,000 кадра/сек
Цветовое пространство : YUV
Субдискретизация насыщенности : 4:2:0
Битовая глубина : 8 бит
Тип развёртки : Прогрессивная
Бит/(Пиксели*Кадры) : 0.201
Размер потока : 3,53 Гбайт (78%)
Библиотека кодирования : x264 core 120 r2119 0637cd6
Настройки программы : cabac=1 / ref=9 / deblock=1:-3:-3 / analyse=0x3:0x113 / me=umh / subme=11 / psy=1 / psy_rd=1.05:0.10 / mixed_ref=1 / me_range=48 / chroma_me=1 / trellis=2 / 8x8dct=1 / cqm=0 / deadzone=21,11 / fast_pskip=0 / chroma_qp_offset=-2 / threads=12 / sliced_threads=0 / nr=0 / decimate=1 / interlaced=0 / bluray_compat=0 / constrained_intra=0 / bframes=6 / b_pyramid=2 / b_adapt=2 / b_bias=0 / direct=3 / weightb=1 / open_gop=0 / weightp=2 / keyint=250 / keyint_min=24 / scenecut=40 / intra_refresh=0 / rc_lookahead=60 / rc=2pass / mbtree=1 / bitrate=4276 / ratetol=1.0 / qcomp=0.70 / qpmin=0 / qpmax=69 / qpstep=4 / cplxblur=20.0 / qblur=0.5 / vbv_maxrate=40000 / vbv_bufsize=30000 / nal_hrd=none / ip_ratio=1.40 / aq=2:0.70
Язык : English
Default : Нет
Forced : Нет

Аудио #1
Идентификатор : 2
Формат : AC-3
Формат/Информация : Audio Coding 3
Расширение режима : CM (complete main)
Идентификатор кодека : A_AC3
Продолжительность : 2 ч. 1 м.
Вид битрейта : Постоянный
Битрейт : 192 Кбит/сек
Каналы : 2 канала
Расположение каналов : Front: L R
Частота : 48,0 КГц
Битовая глубина : 16 бит
Метод сжатия : С потерями
Размер потока : 166 Мбайт (4%)
Заголовок : AVO Ю.Сербин
Язык : Russian
Default : Да
Forced : Нет

Аудио #2
Идентификатор : 3
Формат : AC-3
Формат/Информация : Audio Coding 3
Расширение режима : CM (complete main)
Идентификатор кодека : A_AC3
Продолжительность : 2 ч. 1 м.
Вид битрейта : Постоянный
Битрейт : 448 Кбит/сек
Каналы : 6 каналов
Расположение каналов : Front: L C R, Side: L R, LFE
Частота : 48,0 КГц
Битовая глубина : 16 бит
Метод сжатия : С потерями
Размер потока : 388 Мбайт (8%)
Заголовок : VO
Язык : Russian
Default : Нет
Forced : Нет

Аудио #3
Идентификатор : 4
Формат : AC-3
Формат/Информация : Audio Coding 3
Расширение режима : CM (complete main)
Идентификатор кодека : A_AC3
Продолжительность : 2 ч. 1 м.
Вид битрейта : Постоянный
Битрейт : 448 Кбит/сек
Каналы : 6 каналов
Расположение каналов : Front: L C R, Side: L R, LFE
Частота : 48,0 КГц
Битовая глубина : 16 бит
Метод сжатия : С потерями
Размер потока : 388 Мбайт (8%)
Язык : Korean
Default : Нет
Forced : Нет

pb.wtf



Скачать Караульный пост 506 через торрент https://pic.kartinco.top/images/11/b5kzp.jpg Скачать, смотреть онлайн Караульный пост 506 бесплантно в хорошем качестве Описание: Когда отряд караульного поста 506 не вышел на связь в положенное время, власти заволновались. На пост прибывает разведывательный ... 5.5 10 2
Info! Золотая раздача, скачанное не засчитывается.
Торрент: Зарегистрирован [2017-05-17 16:57] · скачан: 22 раз
Статус: √ проверено
Размер: 4.54 GB
Как cкачать? Как скачать Караульный пост 506 через торрент | UTorrent

% Раздел Тема Автор DL S | L
Азиатские фильмы [ 1.37 GB ] Караульный пост 506 / GP506 [2008 DVDRip] Sудья Скачать
1 | 0

28-11-2019 20:33  

Отключить всю рекламу на сайте

    Дорогой пользователь! Огромная просьба, поблагодарите релизера, оцените раздачу и оставьте свои комментарий, если Вы скачали Караульный пост 506 через торрент бесплатно!
    Комментировать посты могут только пользователи прошедшие не сложную регистрацию
    Показать сообщения:    

    Караульный пост 506 через торрент
    Скачать бесплатно Караульный пост 506
    Караульный пост 506 скачать торрент
    Караульный пост 506 смотреть онлайн
    Cкачать фильм Караульный пост 506 бесплатно
    Караульный пост 506 скачать торрент в хорошем качестве
    Караульный пост 506 смотреть онлайн бесплатно в хорошем качестве


    Вы не можете начинать темы
    Вы не можете отвечать на сообщения
    Вы не можете редактировать свои сообщения
    Вы не можете удалять свои сообщения
    Вы не можете голосовать в опросах
    Вы не можете прикреплять файлы к сообщениям
    Вы можете скачивать файлы