MEGA SALE -50% FORZA HORIZON 4 ULTIMATE+ВСЕ DLC+ОНЛАЙН всего за 599р. 299 руб. (супер цена). Внимание количество ограничено!!!

iTunes

1+1

iTunes

мы

iTunes

1

iTunes

Чернобыль

iTunes

Ральф против интернета

Лицензия

ПШазам

Лицензия

Игра престолов

Лицензия

30
pack

ВАЖНО

!!Акция!!

Alien_RageХит недели

RePack

Resident Evil 21

ИГРА 18+

pack

RePack

Metro:Exodus

!!Акция!!

Alien_Rage

RePack

fifa19

RePack

Assassins Creed: Odyssey

RePack

NEED FOR SPEED™ PAYBACK

3 сезон

9 сезон

Бесстыжие 9 сезон

Все сериалы

все сериалы на PB.wtf

RePack

FAR CRY 5
Ребята, катастрофически не хватает 7730р. для оплаты серверов за АВГУСТ (всвязи с блокировками трафик упал в 3 раза), 1-2р., выручайте.
  

Мы покупаем пожарную машину / Wir kaufen eine Feuerwehr (Ханс Крацерт) [1970 г., Детский, семейный, приключения, DVDRip-AVC, Дубляж] от ExKinoRay pb.wtf

Мы покупаем пожарную машину через торрент pb.wtf

Размер: 1.41 GB | Добавлен: 2 года 3 мес. назад | Торрент скачан:3 раза
Скачать  

17-05-2017 17:23 Мы покупаем пожарную машину Скачать торрент  

Мы покупаем пожарную машину / Wir kaufen eine Feuerwehr
Год выпуска: 1970
Страна: Германия (ГДР)
Жанр: Детский, семейный, приключения
Продолжительность: 00:59:31
Перевод: Дубляж

Режиссер: Ханс Крацерт

Премьера в мире: 13 декабря 1970

rating

В ролях: Эрвин Гешонне, Ларс Пелшулс, Фридель Новак, Петра Келлинг, Джекки Шварц, Мадлен Лирк, Карин Полони, Хольгер Малих, Ханс-Йоахим Штиглер, Отто Крейг Хельбиг

Описание: Шестилетний Матти очень одинок. В школу его ещё не приняли, в детский сад он уже не ходит. Отец бывает дома редко, мать с утра до вечера занята маленькими близнецами. Вот почему Матти решил написать объявление: «Ищу друга на полный рабочий день». Таким другом оказался старый слесарь — дядя Клазен…

Доп. информация: Дублированный (Ленфильм)
Роли дублировали: Ефим Копелян, Маргарита Сергеечева

Качество: DVDRip-AVC
Формат: MKV
Видео кодек: MPEG4
Аудио кодек: AC3
Видео: MPEG-4 AVC, 3000 Кбит/с, 720x576@768x576, 25 кадров/сек
Аудио#1: Русский (AC3, 2 ch, 192 Кбит/с, 48 КГц)
Аудио#2: Немецкий (AC3, 2 ch, 192 Кбит/с, 48 КГц)

Релиз от:




raw [info]: 720x576p 16:15 @ 25/1 fps (cfr)
x264 [info]: using SAR=16/15
x264 [info]: using cpu capabilities: MMX2 SSE2Fast LZCNT
x264 [info]: profile High, level 4.1
x264 [info]: frame I:505 Avg QP:20.46 size: 61305
x264 [info]: frame P:22170 Avg QP:22.97 size: 28124
x264 [info]: frame B:66614 Avg QP:24.83 size: 10280
x264 [info]: consecutive B-frames: 3.2% 5.9% 16.0% 14.0% 10.4% 48.2% 1.9% 0.1% 0.0% 0.0% 0.0% 0.1% 0.0% 0.0% 0.0% 0.0% 0.0%
-----
Общее
Уникальный идентификатор : 231685939474972363826829129149915290313 (0xAE4D16BF0F2F55C2AA49E23E07275AC9)
Полное имя : E:\M6I.Pokypaem.1970.DVDRip-AVC.ExKinoRay.mkv
Формат : Matroska
Версия формата : Version 2
Размер файла : 1,41 Гбайт
Продолжительность : 59 м.
Общий поток : 3386 Кбит/сек
Дата кодирования : UTC 2017-05-17 14:09:09
Программа кодирования : mkvmerge v7.8.0 ('River Man') 32bit built on Apr 3 2015 12:11:22
Библиотека кодирования : libebml v1.3.1 + libmatroska v1.4.2

Видео
Идентификатор : 1
Формат : AVC
Формат/Информация : Advanced Video Codec
Профиль формата : High@L4.1
Параметр CABAC формата : Да
Параметр ReFrames формата : 14 кадров
Идентификатор кодека : V_MPEG4/ISO/AVC
Продолжительность : 59 м.
Битрейт : 3000 Кбит/сек
Ширина : 720 пикселей
Высота : 576 пикселей
Соотношение сторон : 4:3
Режим частоты кадров : Постоянный
Частота кадров : 25,000 кадров/сек
Стандарт вещания : PAL
Цветовое пространство : YUV
Субдискретизация насыщенности : 4:2:0
Битовая глубина : 8 бит
Тип развёртки : Прогрессивная
Бит/(Пиксели*Кадры) : 0.289
Размер потока : 1,22 Гбайт (87%)
Библиотека кодирования : x264 core 148 r2638 7599210
Настройки программы : cabac=1 / ref=14 / deblock=1:-2:-2 / analyse=0x3:0x133 / me=umh / subme=10 / psy=1 / psy_rd=1.05:0.15 / mixed_ref=1 /

me_range=32 / chroma_me=1 / trellis=2 / 8x8dct=1 / cqm=0 / deadzone=21,11 / fast_pskip=0 / chroma_qp_offset=-3 / threads=4 / lookahead_threads=1 / sliced_threads=0 / nr=0

/ decimate=0 / interlaced=0 / bluray_compat=0 / constrained_intra=0 / bframes=16 / b_pyramid=2 / b_adapt=2 / b_bias=0 / direct=3 / weightb=1 / open_gop=0 / weightp=2 /

keyint=250 / keyint_min=25 / scenecut=40 / intra_refresh=0 / rc=2pass / mbtree=0 / bitrate=3000 / ratetol=1.0 / qcomp=0.60 / qpmin=0 / qpmax=69 / qpstep=4 / cplxblur=20.0

/ qblur=0.5 / ip_ratio=1.40 / pb_ratio=1.30 / aq=1:1.00
Язык : English
Default : Да
Forced : Нет
Цветовой диапазон : Limited
Основные цвета : BT.601 NTSC
Характеристики трансфера : BT.601
Коэффициенты матрицы : BT.601

Аудио #1
Идентификатор : 2
Формат : AC-3
Формат/Информация : Audio Coding 3
Расширение режима : CM (complete main)
Параметр Endianness формата : Big
Идентификатор кодека : A_AC3
Продолжительность : 59 м.
Вид битрейта : Постоянный
Битрейт : 192 Кбит/сек
Каналы : 2 канала
Расположение каналов : Front: L R
Частота : 48,0 КГц
Частота кадров : 31,250 кадров/сек (1536 spf)
Метод сжатия : С потерями
Размер потока : 81,7 Мбайт (6%)
Язык : Russian
Default : Да
Forced : Нет

Аудио #2
Идентификатор : 3
Формат : AC-3
Формат/Информация : Audio Coding 3
Расширение режима : CM (complete main)
Параметр Endianness формата : Big
Идентификатор кодека : A_AC3
Продолжительность : 59 м.
Вид битрейта : Постоянный
Битрейт : 192 Кбит/сек
Каналы : 2 канала
Расположение каналов : Front: L R
Частота : 48,0 КГц
Частота кадров : 31,250 кадров/сек (1536 spf)
Метод сжатия : С потерями
Размер потока : 81,7 Мбайт (6%)
Язык : German
Default : Нет
Forced : Нет

pb.wtf



Скачать Мы покупаем пожарную машину через торрент http://i89.fastpic.ru/big/2017/0515/c2/69bbc3814be393a1caba1aaa21a509c2.jpg Скачать фильм Мы покупаем пожарную машину через торрент бесплантно в хорошем качестве Описание: Шестилетний Матти очень одинок. В школу его ещё не приняли, в детский сад он уже не ходит. Отец бывает дома редко, мать с утра до ... 10 10 1
Info! Золотая раздача, скачанное не засчитывается.
Торрент: Зарегистрирован [2017-05-17 17:23] · скачан: 3 раз
Статус: √ проверено
Размер: 1.41 GB
Как cкачать? Как скачать Мы покупаем пожарную машину через торрент | qTorrent


>> Регистрируемся здесь <<






Отзывы и комментарии о схеме читаем и пишем здесь: ---> Отзывы и комментарии о схеме

Новые благодарочки в телеграм довольных пользователей:
скриншот   скриншот   скриншот   скриншот   скриншот
    Дорогой пользователь! Огромная просьба, поблагодарите релизера, оцените раздачу и оставьте свои комментарий, если Вы скачали Мы покупаем пожарную машину через торрент бесплатно! Внесите свою лепту в развитие PiratBit!
    Комментировать посты могут только пользователи прошедшие не сложную регистрацию
    Показать сообщения:    

    Мы покупаем пожарную машину через торрент
    Скачать бесплатно Мы покупаем пожарную машину
    Мы покупаем пожарную машину скачать торрент
    Мы покупаем пожарную машину смотреть онлайн
    Cкачать фильм Мы покупаем пожарную машину бесплатно
    Мы покупаем пожарную машину скачать торрент в хорошем качестве
    Мы покупаем пожарную машину смотреть онлайн бесплатно в хорошем качестве


    Вы не можете начинать темы
    Вы не можете отвечать на сообщения
    Вы не можете редактировать свои сообщения
    Вы не можете удалять свои сообщения
    Вы не можете голосовать в опросах
    Вы не можете прикреплять файлы к сообщениям
    Вы можете скачивать файлы