Ссылка на приватное зеркало нашего сайта всего за 1$. Внимание количество ограничено!!!

2 сезон

iTunes

1 сезон

1

2 сезон

2 сезон

iTunes

1 сезон

RePack

30

Новинка

ВАЖНО

ИГРА 18+

pack

RePack

MK11
pack

Забери бонус

RePack

jed

!!Акция!!

Alien_Rage

RePack

fifa19

RePack

Assassins Creed: Odyssey

RePack

NEED FOR SPEED™ PAYBACK

4 сезон

9 сезон

Бесстыжие 9 сезон

Все сериалы

все сериалы на PB.wtf

RePack

FAR CRY 5
  

Ривердэйл / Riverdale / 1 сезон / 1-13 серии из 13 (Роберто Агирре-Сакаса) [2017, триллер, мистика, драма, детектив, WEB-DLRip] MVO [Пифагор] pb.wtf

Ривердэйл через торрент pb.wtf

Размер: 8.63 GB | Добавлен: 3 года 6 мес. назад | Торрент скачан:95 раз
Скачать  

18-05-2017 07:39 Ривердэйл Скачать торрент  

Ривердэйл / RiverdaleГод выпуска: 2017
Страна: США
Жанр: триллер, мистика, драма, детектив
Всего серий: 13
Продолжительность: 13 x ~ 00:50:00
Перевод: Профессиональный (многоголосый) - [Пифагор]
Субтитры: отсутствуют

Режиссер: Роберто Агирре-Сакаса

rating

В ролях:

Лили Рейнхарт (Бетти Купер), Камила Мендес (Вероника Лодж), Кей Джей Апа (Арчи), Мэделин Петш (Шерил Блоссом), Эшли Мюррэй (Джози), Оливия Райан Штерн (Тина), Сара Хабель (Джеральдин Гранди), Люк Перри (Фред Эндрюс), Медкен Эмик (Элис Купер), Росс Батлер (Реджи), Коул Спроус (Джагхед Джонс), Марисоль Николс (Гермиона Лодж) и др.

Описание:

В таком маленьком населенном пункте, как Ривердэйл, жизнь имеет особый ритм. Со стороны кажется, что все здесь просто великолепно - в городе царит гармония и доброжелательность. И все же сами жители знают, что это ошибочное мнение. За яркой и красивой картинкой благополучия кроются самые настоящие скелеты в шкафу. У каждой семьи есть тайна, которую она мечтает сохранить навсегда. Однако после убийства местного ученика, уже ничего не будет прежним.

Сериал основан на комиксах Арчи. Авторы проекта практически идеально воссоздали мистическую и напряженную атмосферу Твин Пикса. Местами все будет происходит в лучших традициях Крика.

Качество: WEB-DLRip
Формат: AVI
Видео кодек: XviD
Аудио кодек: AC3

Видео: 720x400 (1.80:1), 23.976 fps, XviD build 50 ~1459 kbps avg, 0.21 bit/pixel
Аудио#1: 48 kHz, AC3 Dolby Digital, 3/2 (L,C,R,l,r) + LFE ch, ~384 kbps
скриншот   скриншот   скриншот   скриншот   скриншот  

скриншот   скриншот   скриншот  скриншот   скриншот  





Общее
Полное имя : D:\Riverdale\Riverdale.s01e01.avi
Формат : AVI
Формат/Информация : Audio Video Interleave
Размер файла : 625 Мбайт
Продолжительность : 47 м. 8 с.
Общий поток : 1853 Кбит/сек
Программа кодирования : VirtualDubMod 1.5.10.3 | www.virtualdub-fr.org || (build 2550/release)
Библиотека кодирования : VirtualDubMod build 2550/release

Видео
Идентификатор : 0
Формат : MPEG-4 Visual
Профиль формата : Advanced Simple@L5
Параметр BVOP формата : 1
Параметр QPel формата : Нет
Параметр GMC формата : Без точки перехода
Параметр матрицы формата : Default (MPEG)
Идентификатор кодека : XVID
Идентификатор кодека/Подсказка : XviD
Продолжительность : 47 м. 8 с.
Битрейт : 1460 Кбит/сек
Ширина : 720 пикселей
Высота : 400 пикселей
Соотношение сторон : 16:9
Частота кадров : 23,976 (23976/1000) кадра/сек
Цветовое пространство : YUV
Субдискретизация насыщенности : 4:2:0
Битовая глубина : 8 бит
Тип развёртки : Прогрессивная
Метод сжатия : С потерями
Бит/(Пиксели*Кадры) : 0.211
Размер потока : 492 Мбайт (79%)
Библиотека кодирования : XviD 1.2.1 (UTC 2008-12-04)

Аудио
Идентификатор : 1
Формат : AC-3
Формат/Информация : Audio Coding 3
Расширение режима : CM (complete main)
Параметр Endianness формата : Big
Идентификатор кодека : 2000
Продолжительность : 47 м. 8 с.
Вид битрейта : Постоянный
Битрейт : 384 Кбит/сек
Каналы : 6 каналов
Расположение каналов : Front: L C R, Side: L R, LFE
Частота : 48,0 КГц
Частота кадров : 31,250 кадров/сек (1536 spf)
Метод сжатия : С потерями
Размер потока : 129 Мбайт (21%)
Выравнивание : Разделение по промежуткам
Продолжительность промежутка : 42 мс. (1,00 видеокадр)
Время предзагрузки промежутка : 500 мс.

pb.wtf



Скачать Ривердэйл через торрент http://s009.radikal.ru/i310/1705/29/69f3d8384941.jpg Скачать фильм Ривердэйл через торрент бесплантно в хорошем качестве Описание: В таком маленьком населенном пункте, как Ривердэйл, жизнь имеет особый ритм. Со стороны кажется, что все здесь просто великолепно ... 10 10 8
Торрент: Зарегистрирован [2017-05-18 07:39] · скачан: 95 раз
Статус: √ проверено
Размер: 8.63 GB
Как cкачать? Как скачать Ривердэйл через торрент | qTorrent

% Раздел Тема Автор DL S | L
Зарубежные сериалы [ 40.22 GB ] Ривердэйл / Riverdale / Сезон: 1 / Серии: 1-13 из 13 [2017 Мело BDRip 1080p] MVO [TVShows] bober100 Скачать
1 | 0
Зарубежные сериалы [ 123.55 GB ] Ривердэйл / Riverdale / Сезон: 1 / Серии: 1-13 из 13 [2017 BD Remux 1080p] MVO [LostFilm] bober100 Скачать
1 | 0
Зарубежные сериалы [ 5.92 GB ] Ривердэйл / Riverdale / Сезон 1 / Серии 1-13 из 13 [2017 WEBRip] MVO [LostFilm] bober100 Скачать
1 | 0

28-11-2019 20:33  

Отключить всю рекламу на сайте

    Дорогой пользователь! Огромная просьба, поблагодарите релизера, оцените раздачу и оставьте свои комментарий, если Вы скачали Ривердэйл через торрент бесплатно! Внесите свою лепту в развитие PiratBit!
    Комментировать посты могут только пользователи прошедшие не сложную регистрацию
    Показать сообщения:    

    Ривердэйл через торрент
    Скачать бесплатно Ривердэйл
    Ривердэйл скачать торрент
    Ривердэйл смотреть онлайн
    Cкачать фильм Ривердэйл бесплатно
    Ривердэйл скачать торрент в хорошем качестве
    Ривердэйл смотреть онлайн бесплатно в хорошем качестве


    Вы не можете начинать темы
    Вы не можете отвечать на сообщения
    Вы не можете редактировать свои сообщения
    Вы не можете удалять свои сообщения
    Вы не можете голосовать в опросах
    Вы не можете прикреплять файлы к сообщениям
    Вы можете скачивать файлы