Ссылка на приватное зеркало всего за 1$. Внимание количество ограничено!!!

iTunes

iTunes

iTunes

1

iTunes

iTunes

iTunes

iTunes

iTunes

30
pack

$ от Little Big

ВАЖНО

!!Акция!!

Alien_RageХит недели

RePack

Resident Evil 21

ИГРА 18+

pack

RePack

jed

!!Акция!!

Alien_Rage

RePack

fifa19

RePack

Assassins Creed: Odyssey

RePack

NEED FOR SPEED™ PAYBACK

4 сезон

9 сезон

Бесстыжие 9 сезон

Все сериалы

все сериалы на PB.wtf

RePack

FAR CRY 5
  

Послесвадебный разгром / A Few Less Men (Марк Лампрелл) [2017, комедия, WEB-DL 1080p] DUB (rus) + MVO (ukr) [iTunes] pb.wtf

Послесвадебный разгром через торрент pb.wtf

Размер: 3.37 GB | Добавлен: 3 года 1 мес. назад | Торрент скачан:295 раз
Скачать  

19-05-2017 14:31 Послесвадебный разгром Скачать торрент  

Послесвадебный разгром / A Few Less Men
Год выпуска: 2017
Страна: Австралия
Жанр: комедия
Продолжительность: 01:28:12
Перевод: Дубляж - [iTunes]

Режиссер: Марк Лампрелл

rating

В ролях:

Дакре Монтгомери, Завьер Сэмюэл, Крис Маршалл, Райан Корр, Кевин Бишоп, Саша Хорлер, Линетт Каррен, Дебора Мэйлман, Хлоя Херст, Шэйн Джейкобсон

Описание:

Продолжение похождений бедовых друзей-англичан в Австралии. На сей раз незадачливой троице Дэвиду, Тому и Грэму предстоит через всю страну перевозить гроб с покойным приятелем после того, как их самолет делает непредвиденную высадку в глухой глубинке.

Качество: WEB-DL 1080p
Формат: MKV
Видео кодек: H.264
Аудио кодек: AC3

Видео: 1920x804 at 25.000 fps, MPEG-4 AVC, ~4596 kbps avg, 0.119 bit/pixel
Аудио#1: Russian: 48 kHz, AC3, 3/2 (L,C,R,l,r) + LFE ch, ~384.00 kbps avg |Дубляж, iTunes Russia|
Аудио#2: Ukrainian: 48 kHz, AC3, 3/2 (L,C,R,l,r) + LFE ch, ~384.00 kbps avg |Многоголосый закадровый, iTunes Russia|
скриншот   скриншот   скриншот   скриншот  

Общее
Уникальный идентификатор : 213078834685987422058683998271795482388 (0xA04D7DA69F086567B1D74B53CCC1CF14)
Полное имя : D:\A.Few.Less.Men.2017.1080p.WEB-DL.Rus.Ukr.HDCLUB.mkv
Формат : Matroska
Версия формата : Version 2
Размер файла : 3,37 Гбайт
Продолжительность : 1 ч. 28 м.
Общий поток : 5473 Кбит/сек
Название фильма : A Few Less Men (2017) - Release for HDCLUB
Дата кодирования : UTC 2017-05-18 23:43:53
Программа кодирования : mkvmerge v3.4.0 ('Rapunzel') built on May 15 2010 09:38:20
Библиотека кодирования : libebml v0.8.0 + libmatroska v0.9.0

Видео
Идентификатор : 1
Формат : AVC
Формат/Информация : Advanced Video Codec
Профиль формата : High@L4
Параметр CABAC формата : Да
Параметр ReFrames формата : 5 кадров
Идентификатор кодека : V_MPEG4/ISO/AVC
Продолжительность : 1 ч. 28 м.
Битрейт : 4596 Кбит/сек
Ширина : 1920 пикселей
Высота : 804 пикселя
Соотношение сторон : 2,40:1
Режим частоты кадров : Постоянный
Частота кадров : 25,000 кадров/сек
Цветовое пространство : YUV
Субдискретизация насыщенности : 4:2:0
Битовая глубина : 8 бит
Тип развёртки : Прогрессивная
Бит/(Пиксели*Кадры) : 0.119
Размер потока : 2,83 Гбайт (84%)
Заголовок : A Few Less Men (2017) - Release for HDCLUB
Язык : English
Default : Да
Forced : Нет
Цветовой диапазон : Limited
Основные цвета : BT.709
Характеристики трансфера : BT.709
Коэффициенты матрицы : BT.709

Аудио #1
Идентификатор : 2
Формат : AC-3
Формат/Информация : Audio Coding 3
Расширение режима : CM (complete main)
Параметр Endianness формата : Big
Идентификатор кодека : A_AC3
Продолжительность : 1 ч. 28 м.
Вид битрейта : Постоянный
Битрейт : 384 Кбит/сек
Каналы : 6 каналов
Расположение каналов : Front: L C R, Side: L R, LFE
Частота : 48,0 КГц
Частота кадров : 31,250 кадров/сек (1536 spf)
Метод сжатия : С потерями
Размер потока : 242 Мбайт (7%)
Заголовок : AC3 5.1 @ 384 kbps - DUB, iTunes
Язык : Russian
Default : Да
Forced : Нет

Аудио #2
Идентификатор : 3
Формат : AC-3
Формат/Информация : Audio Coding 3
Расширение режима : CM (complete main)
Параметр Endianness формата : Big
Идентификатор кодека : A_AC3
Продолжительность : 1 ч. 28 м.
Вид битрейта : Постоянный
Битрейт : 384 Кбит/сек
Каналы : 6 каналов
Расположение каналов : Front: L C R, Side: L R, LFE
Частота : 48,0 КГц
Частота кадров : 31,250 кадров/сек (1536 spf)
Метод сжатия : С потерями
Размер потока : 242 Мбайт (7%)
Заголовок : AC3 5.1 @ 384 kbps - MVO, iTunes
Язык : Ukrainian
Default : Нет
Forced : Нет

Меню
00:00:00.000 : en:1
00:08:04.360 : en:2
00:11:31.640 : en:3
00:17:27.640 : en:4
00:23:15.960 : en:5
00:29:42.960 : en:6
00:34:33.600 : en:7
00:38:56.840 : en:8
00:44:03.600 : en:9
00:48:47.480 : en:10
00:53:11.160 : en:11
00:58:13.440 : en:12
01:03:41.960 : en:13
01:09:10.880 : en:14
01:12:49.640 : en:15

pb.wtf



Скачать Послесвадебный разгром через торрент http://i053.radikal.ru/1705/ba/25d4841da29f.jpg Скачать фильм Послесвадебный разгром через торрент бесплантно в хорошем качестве Описание: Продолжение похождений бедовых друзей-англичан в Австралии. На сей раз незадачливой троице Дэвиду, Тому и Грэму предстоит через ... 10 10 8
Торрент: Зарегистрирован [2017-05-19 14:31] · скачан: 295 раз
Статус: √ проверено
Размер: 3.37 GB
Как cкачать? Как скачать Послесвадебный разгром через торрент | qTorrent

% Раздел Тема Автор DL S | L
T Фильмы [HD 720p, 1080p] (Хороший звук DUB, MVO) [ 6.79 GB ] Послесвадебный разгром / A Few Less Men [2016 BDRip 1080p] bober100 Скачать
1 | 0
Фильмы 2017 [DVDrip, WEB-DLRip, HDrip] (DUB, MVO) [ 1.53 GB ] Послесвадебный разгром / A Few Less Men [2017 WEB-DLRip-AVC] bober100 Скачать
1 | 0
T Релизы по Парсеру [Игры, Сериалы и Фильмы и другое...] [ 1.46 GB ] Послесвадебный разгром / A Few Less Men [2017 WEB-DLRip] / Sherif Скачать
1 | 0

28-11-2019 20:33  

Отключить всю рекламу на сайте

    Дорогой пользователь! Огромная просьба, поблагодарите релизера, оцените раздачу и оставьте свои комментарий, если Вы скачали Послесвадебный разгром через торрент бесплатно! Внесите свою лепту в развитие PiratBit!
    Комментировать посты могут только пользователи прошедшие не сложную регистрацию
    Показать сообщения:    

    Послесвадебный разгром через торрент
    Скачать бесплатно Послесвадебный разгром
    Послесвадебный разгром скачать торрент
    Послесвадебный разгром смотреть онлайн
    Cкачать фильм Послесвадебный разгром бесплатно
    Послесвадебный разгром скачать торрент в хорошем качестве
    Послесвадебный разгром смотреть онлайн бесплатно в хорошем качестве


    Вы не можете начинать темы
    Вы не можете отвечать на сообщения
    Вы не можете редактировать свои сообщения
    Вы не можете удалять свои сообщения
    Вы не можете голосовать в опросах
    Вы не можете прикреплять файлы к сообщениям
    Вы можете скачивать файлы