Ссылка на приватное зеркало всего за 1$. Внимание количество ограничено!!!

iTunes

1+1

iTunes

мы

WEB-DL

1

iTunes

Чернобыль

iTunes

Ральф против интернета

Лицензия

ПШазам

Лицензия

Оно 2

Лицензия

30
pack

Вам бонус

ВАЖНО

!!Акция!!

Alien_RageХит недели

RePack

Resident Evil 21

ИГРА 18+

pack

RePack

jed

!!Акция!!

Alien_Rage

RePack

fifa19

RePack

Assassins Creed: Odyssey

RePack

NEED FOR SPEED™ PAYBACK

3 сезон

9 сезон

Бесстыжие 9 сезон

Все сериалы

все сериалы на PB.wtf

RePack

FAR CRY 5
Ребята, катастрофически не хватает 1900р. для оплаты серверов за Октябрь (всвязи с блокировками трафик упал в 3 раза), 1-2р., выручайте.
  

Петля / Hurok (Иштван Мадарас) [2016, фантастика, триллер, криминал, HDTVRip] Любительский двухголосый [BadCatStudio] pb.wtf

Петля через торрент pb.wtf

Размер: 2.15 GB | Добавлен: 2 года 6 мес. назад | Торрент скачан:213 раз
Скачать  

20-05-2017 09:52 Петля Скачать торрент  

Петля / Hurok

Год выпуска: 2016
Страна: Венгрия
Жанр: фантастика, триллер, криминал
Продолжительность: 01:31:14
Перевод: Любительский двухголосый [BadCatStudio]
Примечание: Релиз без рекламы
Режиссер: Иштван Мадарас
В ролях:
Dénes Száraz (Ádám), Dorina Martinovics (Anna), Жолт Ангер (Dezsõ), Геза Хегедюш Д. (Doki apa), Жужа Мальнаи (Kutyás nõ), Дьёрдь Хонти (Kopaszodó férfi), Янош Тимко (Biztonsági õr), Андраш Ретейи (Fürdõköppenyes férfi), Жольт Дер (Pizzafutár), Ференц Элек (Hurley), Péter Lengyel (Orvos), Кати Андрес (Fanni néni)
Описание:
Адам, мелкий наркоторговец, подставляет босса и теряет свою беременную подругу, но вскоре ему предоставляется шанс исправить ошибки, приведшие к ее смерти. Что вовсе не означает возможность начать с чистого листа. Более того, протагонист немедленно сталкивается с побочными эффектами от вмешательства в изначальный ход времени, которые он, застряв во временной петле, раз за разом вынужден преодолевать, стараясь все-таки сохранить девушке жизнь.
Рейтинг:

Качество: HDTVRip
Формат: AVI
Видео: XviD, 720x304 (2.35:1), 2454 kbps, 25 fps, 0,449 bpp
Аудио №1: русский / AC3 / 5.1 / 48 kHz / 384 kbps /
Аудио №2: венгерский / AC3 / 5.1 / 48 kHz / 384 kbps /

General
Complete name : E:\Torrent\film\Hurok.2016.HDTVRip_DS.avi
Format : AVI
Format/Info : Audio Video Interleave
File size : 2.15 GiB
Duration : 1 h 31 min
Overall bit rate : 3 366 kb/s
Writing application : VirtualDubMod 1.5.10.3 (build 2550/release)
Writing library : VirtualDubMod build 2550/release

Video
ID : 0
Format : MPEG-4 Visual
Format profile : Advanced Simple@L5
Format settings, BVOP : 2
Format settings, QPel : No
Format settings, GMC : No warppoints
Format settings, Matrix : Default (H.263)
Codec ID : XVID
Codec ID/Hint : XviD
Duration : 1 h 31 min
Bit rate : 2 454 kb/s
Width : 720 pixels
Height : 304 pixels
Display aspect ratio : 2.35:1
Frame rate : 25.000 FPS
Color space : YUV
Chroma subsampling : 4:2:0
Bit depth : 8 bits
Scan type : Progressive
Compression mode : Lossy
Bits/(Pixel*Frame) : 0.449
Stream size : 1.56 GiB (73%)
Writing library : XviD 1.2.1 (UTC 2008-12-04)

Audio #1
ID : 1
Format : AC-3
Format/Info : Audio Coding 3
Mode extension : CM (complete main)
Format settings, Endianness : Big
Codec ID : 2000
Duration : 1 h 31 min
Bit rate mode : Constant
Bit rate : 384 kb/s
Channel(s) : 6 channels
Channel positions : Front: L C R, Side: L R, LFE
Sampling rate : 48.0 kHz
Frame rate : 31.250 FPS (1536 spf)
Compression mode : Lossy
Stream size : 251 MiB (11%)
Alignment : Split accross interleaves

Audio #2
ID : 2
Format : AC-3
Format/Info : Audio Coding 3
Mode extension : CM (complete main)
Format settings, Endianness : Big
Codec ID : 2000
Duration : 1 h 31 min
Bit rate mode : Constant
Bit rate : 384 kb/s
Channel(s) : 6 channels
Channel positions : Front: L C R, Side: L R, LFE
Sampling rate : 48.0 kHz
Frame rate : 31.250 FPS (1536 spf)
Compression mode : Lossy
Stream size : 251 MiB (11%)
Alignment : Split accross interleaves
pb.wtf



Скачать Петля через торрент http://pic1.kartinco.top/images/11/zcv9v.jpg Скачать фильм Петля через торрент бесплантно в хорошем качестве Описание: Адам, мелкий наркоторговец, подставляет босса и теряет свою беременную подругу, но вскоре ему предоставляется шанс исправить ... 10 10 5
Торрент: Зарегистрирован [2017-05-20 09:52] · скачан: 213 раз
Статус: T временная
Размер: 2.15 GB
Как cкачать? Как скачать Петля через торрент | qTorrent

28-11-2019 20:33  

Отключить всю рекламу на сайте

    Дорогой пользователь! Огромная просьба, поблагодарите релизера, оцените раздачу и оставьте свои комментарий, если Вы скачали Петля через торрент бесплатно! Внесите свою лепту в развитие PiratBit!
    Комментировать посты могут только пользователи прошедшие не сложную регистрацию
    Показать сообщения:    

    Петля через торрент
    Скачать бесплатно Петля
    Петля скачать торрент
    Петля смотреть онлайн
    Cкачать фильм Петля бесплатно
    Петля скачать торрент в хорошем качестве
    Петля смотреть онлайн бесплатно в хорошем качестве


    Вы не можете начинать темы
    Вы не можете отвечать на сообщения
    Вы не можете редактировать свои сообщения
    Вы не можете удалять свои сообщения
    Вы не можете голосовать в опросах
    Вы не можете прикреплять файлы к сообщениям
    Вы можете скачивать файлы