2 сезон

iTunes

MVO

1

2 сезон

iTunes

iTunes

1 сезон

RePack

30

Новинка

ВАЖНО

ИГРА 18+

pack

RePack

MK11
pack

Легкие деньги

RePack

jed

RePack

fifa19

RePack

RDR2

RePack

NEED FOR SPEED™ PAYBACK

4 сезон

9 сезон

Бесстыжие 9 сезон

Все сериалы

все сериалы на PB.wtf

RePack

FAR CRY 5

Anonymous, добрый вечер, мы не успеваем собрать деньги на оплату серверов за декабрь и январь, помогите нам пожалуйста в это трудное время. В качестве благодарности мы отключим Вам всю рекламу на сайте (укажите свой ник в строку Ваше имя)!

×
  
Magnet ссылка

Изгой-один: Звёздные войны. Истории в 3D / Rogue One: A Star Wars Story in 3D (Гарет Эдвардс) [2016 г., Фантастика, Боевик, Приключения, BDRip 1080p, Дубляж Лицензия] Анаглиф (Дюбуа) pb.wtf

Изгой-один: Звёздные войны. Истории в 3D через торрент pb.wtf

Размер: 9.17 GB | Добавлен: 3 года 7 мес. назад | Торрент скачан:47 раз
Скачать  

20-05-2017 16:03 Изгой-один: Звёздные войны. Истории в 3D Скачать торрент  

Изгой-один: Звёздные войны. Истории в 3D / Rogue One: A Star Wars Story in 3D
Год выпуска: 2016
Страна: США, Великобритания
Жанр: Фантастика, Боевик, Приключения
Продолжительность: 02:13:57
Перевод: Дубляж Лицензия
Субтитры: Русские, украинские, английские

Режиссер: Гарет Эдвардс

Бюджет: $200 000 000
Премьера в мире: 10 декабря 2016 (15 декабря 2016)

В ролях: Фелисити Джонс, Диего Луна, Алан Тьюдик, Донни Йен, Цзян Вэнь, Бен Мендельсон, Гай Генри, Форест Уитакер, Риз Ахмед, Мадс Миккельсен

Описание: Сопротивление собирает отряд для выполнения особой миссии - надо выкрасть чертежи самого совершенного и смертоносного оружия Империи. Возглавляет бойцов неуправляемая и бесстрашная Джин Эрсо, у которой в этом самоубийственном задании есть и личные мотивы. Не всем суждено вернуться домой, но герои готовы к этому, ведь на кону судьба Галактики.

Доп. информация: Формат 3D: Анаглиф (Дюбуа)



Качество: BDRip 1080p
Формат: MKV
Видео кодек: H.264
Аудио кодек: AC3
Видео: AVC, 1920x1080 (16:9), 7883 kbps, 23,976 fps, 0.159 bpp
Аудио#1: Русский / AC3 / 48 KHz / 5.1 ch / 640 Kbps (Дубляж - BD 3D Eur)
Аудио#2: Украинский / AC3 / 48 KHz / 5.1 ch / 640 Kbps (Дубляж - Disney / Buena Vista)
Аудио#3: Английский / AC3 / 48 KHz / 5.1 ch / 640 Kbps (Original - BD 3D Eur)



скриншот   скриншот   скриншот   скриншот   скриншот  
x264 [info]: frame I:1944 Avg QP: 8.99 size:191379
x264 [info]: frame P:56064 Avg QP:11.62 size: 70143
x264 [info]: frame B:134670 Avg QP:13.30 size: 26837
x264 [info]: consecutive B-frames: 4.9% 8.1% 16.0% 32.5% 38.5%


Общее
Уникальный идентификатор : 242291197868953926949241558399865005967 (0xB647965AD9082494A1EFA7ACBDEB278F)
Полное имя : E:\RogueOne(2016)3D(Anaglyph_Dubois).mkv
Формат : Matroska
Версия формата : Version 4 / Version 2
Размер файла : 9,17 Гбайт
Продолжительность : 2 ч. 13 м.
Общий поток : 9805 Кбит/сек
Название фильма : Изгой-один: Звёздные войны. Истории / Rogue One (2016) в 3Д (Anaglyph_Dubois)
Дата кодирования : UTC 2017-05-17 16:11:09
Программа кодирования : mkvmerge v6.2.0 ('Promised Land') built on Apr 28 2013 12:22:01
Библиотека кодирования : libebml v1.3.0 + libmatroska v1.4.0

Видео
Идентификатор : 1
Формат : AVC
Формат/Информация : Advanced Video Codec
Профиль формата : High@L4.1
MultiView_Count : 2
MultiView_Layout : Anaglyph (cyan/red)
Параметр CABAC формата : Да
Параметр ReFrames формата : 4 кадра
Идентификатор кодека : V_MPEG4/ISO/AVC
Продолжительность : 2 ч. 13 м.
Битрейт : 7883 Кбит/сек
Ширина : 1920 пикселей
Высота : 1080 пикселей
Соотношение сторон : 16:9
Режим частоты кадров : Постоянный
Частота кадров : 23,976 кадра/сек
Цветовое пространство : YUV
Субдискретизация насыщенности : 4:2:0
Битовая глубина : 8 бит
Тип развёртки : Прогрессивная
Бит/(Пиксели*Кадры) : 0.159
Размер потока : 7,20 Гбайт (78%)
Заголовок : slaventi-69 ( R.G. HD-Films ) 3Д (Anaglyph_Dubois)
Библиотека кодирования : x264 core 130 r2273 b3065e6
Настройки программы : cabac=1 / ref=4 / deblock=1:-1:-1 / analyse=0x3:0x113 / me=umh / subme=9 / psy=1 / psy_rd=1.00:0.00 / mixed_ref=1 / me_range=22 / chroma_me=1 / trellis=2 / 8x8dct=1 / cqm=0 / deadzone=21,11 / fast_pskip=1 / chroma_qp_offset=-2 / threads=8 / lookahead_threads=1 / sliced_threads=0 / nr=0 / decimate=1 / interlaced=0 / bluray_compat=0 / constrained_intra=0 / bframes=4 / b_pyramid=2 / b_adapt=2 / b_bias=0 / direct=3 / weightb=1 / open_gop=0 / weightp=2 / keyint=250 / keyint_min=23 / scenecut=40 / intra_refresh=0 / rc_lookahead=50 / rc=2pass / mbtree=1 / bitrate=7883 / ratetol=1.0 / qcomp=0.60 / qpmin=0 / qpmax=69 / qpstep=4 / cplxblur=20.0 / qblur=0.5 / ip_ratio=1.40 / aq=1:1.00
Язык : English
Default : Да
Forced : Нет

Аудио #1
Идентификатор : 2
Формат : AC-3
Формат/Информация : Audio Coding 3
Расширение режима : CM (complete main)
Параметр Endianness формата : Big
Идентификатор кодека : A_AC3
Продолжительность : 2 ч. 13 м.
Вид битрейта : Постоянный
Битрейт : 640 Кбит/сек
Каналы : 6 каналов
Расположение каналов : Front: L C R, Side: L R, LFE
Частота : 48,0 КГц
Частота кадров : 31,250 кадров/сек (1536 spf)
Метод сжатия : С потерями
Размер потока : 613 Мбайт (7%)
Заголовок : Дубляж - BD Eur
Язык : Russian
Default : Да
Forced : Нет

Аудио #2
Идентификатор : 3
Формат : AC-3
Формат/Информация : Audio Coding 3
Расширение режима : CM (complete main)
Параметр Endianness формата : Big
Идентификатор кодека : A_AC3
Продолжительность : 2 ч. 13 м.
Вид битрейта : Постоянный
Битрейт : 640 Кбит/сек
Каналы : 6 каналов
Расположение каналов : Front: L C R, Side: L R, LFE
Частота : 48,0 КГц
Частота кадров : 31,250 кадров/сек (1536 spf)
Метод сжатия : С потерями
Размер потока : 613 Мбайт (7%)
Заголовок : Дубляж - Disney / Buena Vista
Язык : Ukrainian
Default : Нет
Forced : Нет

Аудио #3
Идентификатор : 4
Формат : AC-3
Формат/Информация : Audio Coding 3
Расширение режима : CM (complete main)
Параметр Endianness формата : Big
Идентификатор кодека : A_AC3
Продолжительность : 2 ч. 13 м.
Вид битрейта : Постоянный
Битрейт : 640 Кбит/сек
Каналы : 6 каналов
Расположение каналов : Front: L C R, Side: L R, LFE
Частота : 48,0 КГц
Частота кадров : 31,250 кадров/сек (1536 spf)
Метод сжатия : С потерями
Размер потока : 613 Мбайт (7%)
Заголовок : Original
Язык : English
Default : Нет
Forced : Нет

Текст #1
Идентификатор : 5
Формат : UTF-8
Идентификатор кодека : S_TEXT/UTF8
Идентификатор кодека/Информация : UTF-8 Plain Text
Заголовок : Форсированные (расширенные)
Язык : Russian
Default : Да
Forced : Нет

Текст #2
Идентификатор : 6
Формат : UTF-8
Идентификатор кодека : S_TEXT/UTF8
Идентификатор кодека/Информация : UTF-8 Plain Text
Заголовок : Полные
Язык : Russian
Default : Нет
Forced : Нет

Текст #3
Идентификатор : 7
Формат : UTF-8
Идентификатор кодека : S_TEXT/UTF8
Идентификатор кодека/Информация : UTF-8 Plain Text
Заголовок : Форсированные (расширенные)
Язык : Ukrainian
Default : Нет
Forced : Нет

Текст #4
Идентификатор : 8
Формат : UTF-8
Идентификатор кодека : S_TEXT/UTF8
Идентификатор кодека/Информация : UTF-8 Plain Text
Заголовок : Full
Язык : English
Default : Нет
Forced : Нет

Текст #5
Идентификатор : 9
Формат : UTF-8
Идентификатор кодека : S_TEXT/UTF8
Идентификатор кодека/Информация : UTF-8 Plain Text
Заголовок : SDH
Язык : English
Default : Нет
Forced : Нет

Текст #6
Идентификатор : 10
Формат : UTF-8
Идентификатор кодека : S_TEXT/UTF8
Идентификатор кодека/Информация : UTF-8 Plain Text
Заголовок : SDH-Colored
Язык : English
Default : Нет
Forced : Нет

Меню
00:00:00.000 : :1. "He's Come For Us"
00:02:34.653 : :2. Unfinished Business
00:07:46.464 : :3. Jyn in Prison
00:08:42.812 : :4. Ring of Kafrene
00:11:04.621 : :5. An Urgent Message
00:12:21.197 : :6. Wobani Prison Break
00:13:41.153 : :7. Rebel Interrogation
00:17:19.913 : :8. Mission Departure
00:20:09.540 : :9. Saw Gerrera
00:21:54.770 : :10. Krennic and Tarkin
00:23:47.092 : :11. Jyn's Dream
00:24:31.385 : :12. Scouting Jedha City
00:26:53.443 : :13. Bor Gullet
00:27:46.623 : :14. Guardians of The Whills
00:30:37.292 : :15. Holy City Ambush
00:33:53.405 : :16. "Let them Pass"
00:37:11.269 : :17. Saw's Catacombs
00:42:30.088 : :18. Galen's Message
00:47:16.123 : :19. Jedha Escape
00:51:04.143 : :20. Tarkin Commands
00:52:23.722 : :21. Race to Eadu
00:55:53.266 : :22. Eadu Crash
00:59:48.251 : :23. Scouting Eadu
01:02:07.806 : :24. Krennic and Galen
01:05:25.503 : :25. Attack on Eadu
01:10:24.094 : :26. Eadu Aftermath
01:12:49.530 : :27. Mustafar
01:16:28.457 : :28. Jyn Before the Council
01:19:04.322 : :29. "May the Force Be With Us"
01:21:55.159 : :30. Rogue One Launches
01:23:25.667 : :31. Scarif Gate
01:25:58.985 : :32. 10 Men Like 100
01:27:34.957 : :33. Imperial Inspection
01:29:57.307 : :34. Ground Forces
01:31:53.841 : :35. The Battle Begins
01:34:18.735 : :36. Scrambling the Rebel Fleet
01:36:07.511 : :37. Sowing Confusion
01:37:48.237 : :38. Rebel Reinforcements
01:40:27.604 : :39. Beach Battle
01:42:44.073 : :40. Master Switch
01:45:26.778 : :41. Stardust
01:47:55.010 : :42. Data Vault
01:50:31.416 : :43. Sacrifices
01:53:28.885 : :44. "We Have the Plans"
01:55:46.271 : :45. Final Confrontation
01:59:23.447 : :46. Transmission Received
02:01:11.346 : :47. Fire When Ready
02:03:15.595 : :48. Hope
02:05:42.117 : :49. End Credits

pb.wtf



Скачать Изгой-один: Звёздные войны. Истории в 3D через торрент http://i91.fastpic.ru/big/2017/0401/6d/5d95dce61c0d8bfb9200f065f02b806d.png Скачать фильм Изгой-один: Звёздные войны. Истории в 3D через торрент бесплантно в хорошем качестве Описание: Сопротивление собирает отряд для выполнения особой миссии - надо выкрасть чертежи самого совершенного и смертоносного оружия ... 10 10 4
Торрент: Зарегистрирован [2017-05-20 16:03] · скачан: 47 раз
Статус: √ проверено
Размер: 9.17 GB
Как cкачать? Как скачать Изгой-один: Звёздные войны. Истории в 3D через торрент | UTorrent

28-11-2019 20:33  

Отключить всю рекламу на сайте

    Дорогой пользователь! Огромная просьба, поблагодарите релизера, оцените раздачу и оставьте свои комментарий, если Вы скачали Изгой-один: Звёздные войны. Истории в 3D через торрент бесплатно! Внесите свою лепту в развитие PiratBit!
    Комментировать посты могут только пользователи прошедшие не сложную регистрацию
    Показать сообщения:    

    Изгой-один: Звёздные войны. Истории в 3D через торрент
    Скачать бесплатно Изгой-один: Звёздные войны. Истории в 3D
    Изгой-один: Звёздные войны. Истории в 3D скачать торрент
    Изгой-один: Звёздные войны. Истории в 3D смотреть онлайн
    Cкачать фильм Изгой-один: Звёздные войны. Истории в 3D бесплатно
    Изгой-один: Звёздные войны. Истории в 3D скачать торрент в хорошем качестве
    Изгой-один: Звёздные войны. Истории в 3D смотреть онлайн бесплатно в хорошем качестве


    Вы не можете начинать темы
    Вы не можете отвечать на сообщения
    Вы не можете редактировать свои сообщения
    Вы не можете удалять свои сообщения
    Вы не можете голосовать в опросах
    Вы не можете прикреплять файлы к сообщениям
    Вы можете скачивать файлы