MEGA SALE -50% FORZA HORIZON 4 ULTIMATE+ВСЕ DLC+ОНЛАЙН всего за 599р. 299 руб. (супер цена). Внимание количество ограничено!!!

iTunes

1+1

iTunes

мы

iTunes

1

iTunes

Чернобыль

iTunes

Ральф против интернета

Лицензия

ПШазам

Лицензия

Игра престолов

Лицензия

30
pack

ВАЖНО

!!Акция!!

Alien_RageХит недели

RePack

Resident Evil 21

ИГРА 18+

pack

RePack

Metro:Exodus

!!Акция!!

Alien_Rage

RePack

fifa19

RePack

Assassins Creed: Odyssey

RePack

NEED FOR SPEED™ PAYBACK

3 сезон

9 сезон

Бесстыжие 9 сезон

Все сериалы

все сериалы на PB.wtf

RePack

FAR CRY 5
Ребята, катастрофически не хватает 7730р. для оплаты серверов за ИЮЛЬ (всвязи с блокировками трафик упал в 3 раза), 1-2р., выручайте.
  

Счастлив тот, кто подобно Улиссу / Heureux qui comme Ulysse (Анри Кольпи) [1970 г., Комедия, DVDRip-AVC, Профессиональный (многоголосый)] от ExKinoRay pb.wtf

Счастлив тот, кто подобно Улиссу через торрент pb.wtf

Размер: 2.21 GB | Добавлен: 2 года 3 мес. назад | Торрент скачан:3 раза
Скачать  

20-05-2017 16:43 Счастлив тот, кто подобно Улиссу Скачать торрент  

Счастлив тот кто подобно Улиссу / Heureux qui comme Ulysse
Год выпуска: 1970
Страна: Франция
Жанр: Комедия
Продолжительность: 01:28:17
Перевод: Профессиональный (многоголосый)

Режиссер: Анри Кольпи

Премьера в мире: 3 января 1970

rating

В ролях: Фернандель, Реллис, Мирей Одибер, Жильбер Риве, Эвелин Селена, Элен Тосси, Макс Амиль, Ардиссон, Люсьен Баржон, Марсель Шарвей, Анри Тизо

Описание: Конюх Антонэн вынужден возить старого коня в южный городок Арль, в цирк, где беднягу на арене истязают тигры. Так решил его хозяин. Но Антонэн не желает такой участи лошадке, и они отправляются путешествовать по Лазурному берегу... Фильм снят по роману Марлена Фрик "Возвращение домой". Это последний фильм с участием Фернанделя.

Качество: DVDRip-AVC
Формат: MKV
Видео кодек: MPEG4
Аудио кодек: AC3
Видео: MPEG-4 AVC, 3200 Кбит/с, 656x576@932x576, 25 кадров/сек
Аудио#1: Русский (AC3, 2 ch, 192 Кбит/с, 48 КГц)
Аудио#2: Французский (AC3, 2 ch, 192 Кбит/с, 48 КГц)
Релиз от:




raw [info]: 656x576p 64:45 @ 25/1 fps (cfr)
x264 [info]: using SAR=64/45
x264 [info]: using cpu capabilities: MMX2 SSE2Fast LZCNT
x264 [info]: profile High, level 4.1
x264 [info]: frame I:700 Avg QP:18.20 size: 57311
x264 [info]: frame P:28877 Avg QP:20.38 size: 28377
x264 [info]: frame B:102851 Avg QP:22.84 size: 12246
x264 [info]: consecutive B-frames: 1.8% 2.9% 10.9% 13.5% 9.0% 59.4% 1.8% 0.3% 0.2% 0.0% 0.0% 0.0% 0.0% 0.0% 0.0% 0.0% 0.0%
-----
Общее
Уникальный идентификатор : 238168138629352033958740907028761647125 (0xB32D83D6F179D41BBA1211EC67C59815)
Полное имя : E:\Ulysse.1970.DVDRip-AVC.ExKinoRay.mkv
Формат : Matroska
Версия формата : Version 2
Размер файла : 2,21 Гбайт
Продолжительность : 1 ч. 28 м.
Общий поток : 3586 Кбит/сек
Дата кодирования : UTC 2017-05-20 11:28:32
Программа кодирования : mkvmerge v7.8.0 ('River Man') 32bit built on Apr 3 2015 12:11:22
Библиотека кодирования : libebml v1.3.1 + libmatroska v1.4.2

Видео
Идентификатор : 1
Формат : AVC
Формат/Информация : Advanced Video Codec
Профиль формата : High@L4.1
Параметр CABAC формата : Да
Параметр ReFrames формата : 14 кадров
Идентификатор кодека : V_MPEG4/ISO/AVC
Продолжительность : 1 ч. 28 м.
Битрейт : 3200 Кбит/сек
Ширина : 656 пикселей
Высота : 576 пикселей
Соотношение сторон : 16:10
Соотношение сторон в оригинале : 16:10
Режим частоты кадров : Постоянный
Частота кадров : 25,000 кадров/сек
Цветовое пространство : YUV
Субдискретизация насыщенности : 4:2:0
Битовая глубина : 8 бит
Тип развёртки : Прогрессивная
Бит/(Пиксели*Кадры) : 0.339
Размер потока : 1,93 Гбайт (87%)
Библиотека кодирования : x264 core 148 r2638 7599210
Настройки программы : cabac=1 / ref=14 / deblock=1:-2:-2 / analyse=0x3:0x133 / me=umh / subme=10 / psy=1 / psy_rd=1.05:0.15 / mixed_ref=1 /

me_range=32 / chroma_me=1 / trellis=2 / 8x8dct=1 / cqm=0 / deadzone=21,11 / fast_pskip=0 / chroma_qp_offset=-3 / threads=4 / lookahead_threads=1 / sliced_threads=0 / nr=0

/ decimate=0 / interlaced=0 / bluray_compat=0 / constrained_intra=0 / bframes=16 / b_pyramid=2 / b_adapt=2 / b_bias=0 / direct=3 / weightb=1 / open_gop=0 / weightp=2 /

keyint=250 / keyint_min=25 / scenecut=40 / intra_refresh=0 / rc=2pass / mbtree=0 / bitrate=3200 / ratetol=1.0 / qcomp=0.60 / qpmin=0 / qpmax=69 / qpstep=4 / cplxblur=20.0

/ qblur=0.5 / ip_ratio=1.40 / pb_ratio=1.30 / aq=1:1.00
Язык : English
Default : Да
Forced : Нет
Цветовой диапазон : Limited
Основные цвета : BT.601 NTSC
Характеристики трансфера : BT.601
Коэффициенты матрицы : BT.601

Аудио #1
Идентификатор : 2
Формат : AC-3
Формат/Информация : Audio Coding 3
Расширение режима : CM (complete main)
Параметр Endianness формата : Big
Идентификатор кодека : A_AC3
Продолжительность : 1 ч. 28 м.
Вид битрейта : Постоянный
Битрейт : 192 Кбит/сек
Каналы : 2 канала
Расположение каналов : Front: L R
Частота : 48,0 КГц
Частота кадров : 31,250 кадров/сек (1536 spf)
Метод сжатия : С потерями
Размер потока : 121 Мбайт (5%)
Язык : Russian
Default : Да
Forced : Нет

Аудио #2
Идентификатор : 3
Формат : AC-3
Формат/Информация : Audio Coding 3
Режим : Dual Mono
Расширение режима : CM (complete main)
Параметр Endianness формата : Big
Идентификатор кодека : A_AC3
Продолжительность : 1 ч. 28 м.
Вид битрейта : Постоянный
Битрейт : 192 Кбит/сек
Каналы : 2 канала
Расположение каналов : Dual mono
Частота : 48,0 КГц
Частота кадров : 31,250 кадров/сек (1536 spf)
Метод сжатия : С потерями
Размер потока : 121 Мбайт (5%)
Язык : French
Default : Нет
Forced : Нет

pb.wtf



Скачать Счастлив тот, кто подобно Улиссу через торрент http://s018.radikal.ru/i507/1705/a5/95d0cc64661c.jpg Скачать фильм Счастлив тот, кто подобно Улиссу через торрент бесплантно в хорошем качестве Описание: Конюх Антонэн вынужден возить старого коня в южный городок Арль, в цирк, где беднягу на арене истязают тигры. Так решил его ... 10 10 2
Info! Золотая раздача, скачанное не засчитывается.
Торрент: Зарегистрирован [2017-05-20 16:43] · скачан: 3 раз
Статус: √ проверено
Размер: 2.21 GB
Как cкачать? Как скачать Счастлив тот, кто подобно Улиссу через торрент | qTorrent



Последний раз редактировалось: dumbia (2017-05-26 17:47), всего редактировалось 1 раз


>> Регистрируемся здесь <<






Отзывы и комментарии о схеме читаем и пишем здесь: ---> Отзывы и комментарии о схеме

Новые благодарочки в телеграм довольных пользователей:
скриншот   скриншот   скриншот   скриншот   скриншот
    Дорогой пользователь! Огромная просьба, поблагодарите релизера, оцените раздачу и оставьте свои комментарий, если Вы скачали Счастлив тот, кто подобно Улиссу через торрент бесплатно! Внесите свою лепту в развитие PiratBit!
    Комментировать посты могут только пользователи прошедшие не сложную регистрацию
    Показать сообщения:    

    Счастлив тот, кто подобно Улиссу через торрент
    Скачать бесплатно Счастлив тот, кто подобно Улиссу
    Счастлив тот, кто подобно Улиссу скачать торрент
    Счастлив тот, кто подобно Улиссу смотреть онлайн
    Cкачать фильм Счастлив тот, кто подобно Улиссу бесплатно
    Счастлив тот, кто подобно Улиссу скачать торрент в хорошем качестве
    Счастлив тот, кто подобно Улиссу смотреть онлайн бесплатно в хорошем качестве


    Вы не можете начинать темы
    Вы не можете отвечать на сообщения
    Вы не можете редактировать свои сообщения
    Вы не можете удалять свои сообщения
    Вы не можете голосовать в опросах
    Вы не можете прикреплять файлы к сообщениям
    Вы можете скачивать файлы