2 сезон

iTunes

MVO

1

2 сезон

iTunes

iTunes

1 сезон

RePack

30

Новинка

ВАЖНО

ИГРА 18+

pack

RePack

MK11
pack

Легкие деньги

RePack

jed

RePack

fifa19

RePack

RDR2

RePack

NEED FOR SPEED™ PAYBACK

4 сезон

9 сезон

Бесстыжие 9 сезон

Все сериалы

все сериалы на PB.wtf

RePack

FAR CRY 5

Anonymous, добрый день, мы не успеваем собрать деньги на оплату серверов за декабрь и январь, помогите нам пожалуйста в это трудное время. В качестве благодарности мы отключим Вам всю рекламу на сайте (укажите свой ник в строку Ваше имя)!

×
  
Magnet ссылка

Фантастические твари и где они обитают в 3D / Fantastic Beasts and Where to Find Them in 3D (Дэвид Йейтс) [2016 г., Фэнтези, Приключения, Семейный, BDRip 1080p, Дубляж Лицензия]Анаглиф (Дюбуа) pb.wtf

Фантастические твари и где они обитают в 3D через торрент pb.wtf

Раздают: 1 [ 0 KB/s ]
Размер: 8.3 GB | Добавлен: 3 года 8 мес. назад | Торрент скачан:100 раз
Скачать  

21-05-2017 16:58 Фантастические твари и где они обитают в 3D Скачать торрент  

Фантастические твари и где они обитают в 3D / Fantastic Beasts and Where to Find Them in 3D
Год выпуска: 2016
Страна: Великобритания, США (Warner Bros. Pictures, Heyday Fims)
Жанр: Фэнтези, Приключения, Семейный
Продолжительность: 02:12:52
Перевод: Дубляж Лицензия
Субтитры: Русские, украинские, английские

Режиссер: Дэвид Йейтс

Бюджет: $180 000 000
Премьера в мире: 8 ноября 2016 (17 ноября 2016)

В ролях: Эдди Редмэйн, Кэтрин Уотерстон, Дэн Фоглер, Элисон Судол, Колин Фаррелл, Кармен Эджого, Эзра Миллер, Саманта Мортон, Рон Перлман, Джон Войт

Описание: Поиск и изучение необычайных волшебных существ приводят магозоолога Ньюта Саламандера в Нью-Йорк. Скорее всего, он отбыл бы на поезде дальше, если бы не не маг (так в Америке называют магглов) по имени Якоб, оставленный в неположенном месте магический чемодан и побег из него фантастических животных Ньюта.

Доп. информация: Формат 3D: Анаглиф (Дюбуа)



Качество: BDRip 1080p
Формат: MKV
Видео кодек: H.264
Аудио кодек: AC3
Видео: AVC, 1920x1080 (16:9), 7661 kbps, 23,976 fps, 0.154 bpp
Аудио#1: Русский / AC3 / 48 KHz / 5.1 ch / 448 Kbps (Дубляж - BD CEE)
Аудио#2: Украинский / AC3 / 48 KHz / 2 ch / 192 Kbps (Дубляж - iTunes) [Спасибо Hurtom!]
Аудио#3: Английский / AC3 / 48 KHz / 5.1 ch / 640 Kbps (Original - BD 3D US)



скриншот   скриншот   скриншот   скриншот   скриншот  
x264 [info]: frame I:1779 Avg QP:11.01 size:215925
x264 [info]: frame P:46669 Avg QP:14.87 size: 71766
x264 [info]: frame B:142701 Avg QP:17.27 size: 27341
x264 [info]: consecutive B-frames: 2.4% 2.1% 8.1% 33.6% 53.8%


Общее
Уникальный идентификатор : 224284499238630326608004729107470395848 (0xA8BB9F918AF74D7FA5F177DCD620A9C8)
Полное имя : E:\FantasticBeasts(2016)3D(Anaglyph_Dubois).mkv
Формат : Matroska
Версия формата : Version 4 / Version 2
Размер файла : 8,30 Гбайт
Продолжительность : 2 ч. 12 м.
Общий поток : 8944 Кбит/сек
Название фильма : Фантастические твари и где они обитают / Fantastic Beasts and Where to Find Them (2016) в 3Д (Anaglyph_Dubois)
Дата кодирования : UTC 2017-05-20 13:49:47
Программа кодирования : mkvmerge v9.1.0 ('Little Earthquakes') 64bit
Библиотека кодирования : libebml v1.3.3 + libmatroska v1.4.4

Видео
Идентификатор : 1
Формат : AVC
Формат/Информация : Advanced Video Codec
Профиль формата : High@L4.1
MultiView_Count : 2
MultiView_Layout : Anaglyph (cyan/red)
Параметр CABAC формата : Да
Параметр ReFrames формата : 4 кадра
Идентификатор кодека : V_MPEG4/ISO/AVC
Продолжительность : 2 ч. 12 м.
Битрейт : 7661 Кбит/сек
Ширина : 1920 пикселей
Высота : 1080 пикселей
Соотношение сторон : 16:9
Режим частоты кадров : Постоянный
Частота кадров : 23,976 кадра/сек
Цветовое пространство : YUV
Субдискретизация насыщенности : 4:2:0
Битовая глубина : 8 бит
Тип развёртки : Прогрессивная
Бит/(Пиксели*Кадры) : 0.154
Размер потока : 7,11 Гбайт (86%)
Заголовок : slaventi-69 ( R.G. HD-Films ) 3Д (Anaglyph_Dubois)
Библиотека кодирования : x264 core 146 r2538 121396c
Настройки программы : cabac=1 / ref=4 / deblock=1:-1:-1 / analyse=0x3:0x113 / me=umh / subme=9 / psy=1 / psy_rd=1.00:0.00 / mixed_ref=1 / me_range=24 / chroma_me=1 / trellis=2 / 8x8dct=1 / cqm=0 / deadzone=21,11 / fast_pskip=1 / chroma_qp_offset=-2 / threads=8 / lookahead_threads=1 / sliced_threads=0 / nr=0 / decimate=1 / interlaced=0 / bluray_compat=0 / constrained_intra=0 / bframes=4 / b_pyramid=2 / b_adapt=2 / b_bias=0 / direct=1 / weightb=1 / open_gop=0 / weightp=2 / keyint=250 / keyint_min=23 / scenecut=40 / intra_refresh=0 / rc_lookahead=50 / rc=crf / mbtree=1 / crf=17.5 / qcomp=0.60 / qpmin=0 / qpmax=69 / qpstep=4 / vbv_maxrate=14000 / vbv_bufsize=14000 / crf_max=0.0 / nal_hrd=none / filler=0 / ip_ratio=1.40 / aq=1:1.00
Язык : English
Default : Да
Forced : Нет

Аудио #1
Идентификатор : 2
Формат : AC-3
Формат/Информация : Audio Coding 3
Расширение режима : CM (complete main)
Параметр Endianness формата : Big
Идентификатор кодека : A_AC3
Продолжительность : 2 ч. 12 м.
Вид битрейта : Постоянный
Битрейт : 448 Кбит/сек
Каналы : 6 каналов
Расположение каналов : Front: L C R, Side: L R, LFE
Частота : 48,0 КГц
Частота кадров : 31,250 кадров/сек (1536 spf)
Метод сжатия : С потерями
Размер потока : 426 Мбайт (5%)
Заголовок : Дубляж - BD CEE
Язык : Russian
Default : Да
Forced : Нет

Аудио #2
Идентификатор : 3
Формат : AC-3
Формат/Информация : Audio Coding 3
Расширение режима : CM (complete main)
Параметр Endianness формата : Big
Идентификатор кодека : A_AC3
Продолжительность : 2 ч. 12 м.
Вид битрейта : Постоянный
Битрейт : 192 Кбит/сек
Каналы : 2 канала
Расположение каналов : Front: L R
Частота : 48,0 КГц
Частота кадров : 31,250 кадров/сек (1536 spf)
Метод сжатия : С потерями
Размер потока : 182 Мбайт (2%)
Заголовок : Дубляж - iTunes
Язык : Ukrainian
Default : Нет
Forced : Нет

Аудио #3
Идентификатор : 4
Формат : AC-3
Формат/Информация : Audio Coding 3
Расширение режима : CM (complete main)
Параметр Endianness формата : Big
Идентификатор кодека : A_AC3
Продолжительность : 2 ч. 12 м.
Вид битрейта : Постоянный
Битрейт : 640 Кбит/сек
Каналы : 6 каналов
Расположение каналов : Front: L C R, Side: L R, LFE
Частота : 48,0 КГц
Частота кадров : 31,250 кадров/сек (1536 spf)
Метод сжатия : С потерями
Размер потока : 608 Мбайт (7%)
Заголовок : Original - BD 3D
Язык : English
Default : Нет
Forced : Нет

Текст #1
Идентификатор : 5
Формат : UTF-8
Идентификатор кодека : S_TEXT/UTF8
Идентификатор кодека/Информация : UTF-8 Plain Text
Продолжительность : 2 ч. 12 м.
Битрейт : 2 бит/сек
Count of elements : 47
Размер потока : 2,23 Кбайт (0%)
Заголовок : Форсированные (расширенные)
Язык : Russian
Default : Да
Forced : Нет

Текст #2
Идентификатор : 6
Формат : UTF-8
Идентификатор кодека : S_TEXT/UTF8
Идентификатор кодека/Информация : UTF-8 Plain Text
Продолжительность : 2 ч. 12 м.
Битрейт : 53 бит/сек
Count of elements : 1310
Размер потока : 52,2 Кбайт (0%)
Заголовок : Полные
Язык : Russian
Default : Нет
Forced : Нет

Текст #3
Идентификатор : 7
Формат : UTF-8
Идентификатор кодека : S_TEXT/UTF8
Идентификатор кодека/Информация : UTF-8 Plain Text
Продолжительность : 2 ч. 12 м.
Битрейт : 2 бит/сек
Count of elements : 47
Размер потока : 2,76 Кбайт (0%)
Заголовок : Форсированные (расширенные)
Язык : Ukrainian
Default : Нет
Forced : Нет

Текст #4
Идентификатор : 8
Формат : UTF-8
Идентификатор кодека : S_TEXT/UTF8
Идентификатор кодека/Информация : UTF-8 Plain Text
Продолжительность : 2 ч. 1 м.
Битрейт : 41 бит/сек
Count of elements : 1303
Размер потока : 37,1 Кбайт (0%)
Заголовок : Full
Язык : English
Default : Нет
Forced : Нет

Текст #5
Идентификатор : 9
Формат : UTF-8
Идентификатор кодека : S_TEXT/UTF8
Идентификатор кодека/Информация : UTF-8 Plain Text
Продолжительность : 2 ч. 2 м.
Битрейт : 48 бит/сек
Count of elements : 1598
Размер потока : 43,3 Кбайт (0%)
Заголовок : SDH
Язык : English
Default : Нет
Forced : Нет

Меню
00:00:00.000 : :1
00:08:40.270 : :2
00:18:55.718 : :3
00:28:23.660 : :4
00:38:34.187 : :5
00:48:08.594 : :6
00:58:19.246 : :7
01:09:14.692 : :8
01:17:26.392 : :9
01:29:33.660 : :10
01:38:02.085 : :11
01:50:27.871 : :12
01:59:04.471 : :13
02:04:12.820 : :14

pb.wtf



Скачать Фантастические твари и где они обитают в 3D через торрент http://i91.fastpic.ru/big/2017/0312/c4/f91ad7ae208887ba06dddee17c446bc4.png Скачать фильм Фантастические твари и где они обитают в 3D через торрент бесплантно в хорошем качестве Описание: Поиск и изучение необычайных волшебных существ приводят магозоолога Ньюта Саламандера в Нью-Йорк. Скорее всего, он отбыл бы на ... 10 10 1
Торрент: Зарегистрирован [2017-05-21 16:58] · скачан: 100 раз
Статус: √ проверено
Размер: 8.3 GB
Как cкачать? Как скачать Фантастические твари и где они обитают в 3D через торрент | UTorrent

% Раздел Тема Автор DL S | L
3D Фильмы [ 21.47 GB ] Фантастические твари и где они обитают в 3Д / Fantastic Beasts and Where to Find Them 3D [2016 BDrip 1080p] DUB / OverUnder / Вертикальная стереопара serega768 Скачать
1 | 0

28-11-2019 20:33  

Отключить всю рекламу на сайте

    Дорогой пользователь! Огромная просьба, поблагодарите релизера, оцените раздачу и оставьте свои комментарий, если Вы скачали Фантастические твари и где они обитают в 3D через торрент бесплатно! Внесите свою лепту в развитие PiratBit!
    Комментировать посты могут только пользователи прошедшие не сложную регистрацию
    Показать сообщения:    

    Фантастические твари и где они обитают в 3D через торрент
    Скачать бесплатно Фантастические твари и где они обитают в 3D
    Фантастические твари и где они обитают в 3D скачать торрент
    Фантастические твари и где они обитают в 3D смотреть онлайн
    Cкачать фильм Фантастические твари и где они обитают в 3D бесплатно
    Фантастические твари и где они обитают в 3D скачать торрент в хорошем качестве
    Фантастические твари и где они обитают в 3D смотреть онлайн бесплатно в хорошем качестве


    Вы не можете начинать темы
    Вы не можете отвечать на сообщения
    Вы не можете редактировать свои сообщения
    Вы не можете удалять свои сообщения
    Вы не можете голосовать в опросах
    Вы не можете прикреплять файлы к сообщениям
    Вы можете скачивать файлы