Ссылка на приватное зеркало нашего сайта всего за 1$. Внимание количество ограничено!!!

2 сезон

iTunes

1 сезон

1

iTunes

iTunes

iTunes

1 сезон

RePack

30

ИГРА 18+

pack

ВАЖНО

!!Акция!!

Alien_RageХит недели

RePack

MK11
pack

Забери бонус

RePack

jed

!!Акция!!

Alien_Rage

RePack

fifa19

RePack

Assassins Creed: Odyssey

RePack

NEED FOR SPEED™ PAYBACK

4 сезон

9 сезон

Бесстыжие 9 сезон

Все сериалы

все сериалы на PB.wtf

RePack

FAR CRY 5
  

Основатель / The Founder (Джон Ли Хэнкок) [2016, Драма, биография, история, BDRip 1080p] MVO [Jaskier] +AVO [Д.Есарев] pb.wtf

Основатель через торрент pb.wtf

Размер: 11.6 GB | Добавлен: 3 года 5 мес. назад | Торрент скачан:143 раза
Скачать  

21-05-2017 19:05 Основатель Скачать торрент  

Основатель / The FounderГод выпуска: 2016
Страна: США
Жанр: Драма, биография, история
Продолжительность: 01:56:25
Перевод:

#1: Профессиональный (многоголосый) | Jaskier
#2: Авторский | Дмитрий Есарев

Субтитры: английские

Режиссер: Джон Ли Хэнкок

rating

В ролях:

Линда Карделлини, Ник Офферман, Майкл Китон, Патрик Уилсон, Лора Дерн, Джон Кэрролл Линч, Б.Дж. Новак, Кимберли Баттиста, Катрин Дайер, Девон Огден

Описание:

Фильм расскажет о жизни Рэя Крока, человека создавшего самую известную в мире сеть ресторанов быстрого обслуживания — McDonald`s. К такому успеху стремится любой уважающий себя мужчина. Хотя большая часть в 52 года уже задумывается о пенсии, упадке сил, потере интереса к женщинам и невозможности изменить устоявшийся расклад в жизни. Но только не Рэй Крок, который загорелся таким жгучим желанием, что найденная им «скважина» со временем принесла ему астрономическую сумму денег. Он словно выпил эликсир молодости и с головой окунулся в воплощение пресловутой американской мечты. У него всё получалось

Качество: BDRip 1080p
Формат: MKV
Видео кодек: H.264
Аудио кодек: AC3/DTS

Видео: MPEG-4 AVC, 1920x800, 11.0 Mbit/s, 23.976 fps, 0.299 bit/pixel
Аудио#1: 48 kHz, AC3, 5.1, 384 Kbps | Профессиональный многоголосый | RUS |
Аудио#2: 48 kHz, DTS, 5.1, 1510 Kbps | Авторский | RUS |
Аудио#3: 48 kHz, DTS, 5.1, 1510 Kbps | Оригинал | ENG |
скриншот   скриншот   скриншот   скриншот   скриншот  

General
Unique ID : 249528892396591082664111954103509727954 (0xBBB9843EF4D2BDDC96B9373A04783AD2)
Complete name : F:VideoThe.Founder.2016.MVO.AVO.BDRip.1080p.ExKinoRay.mkv
Format : Matroska
Format version : Version 4 / Version 2
File size : 11.6 GiB
Duration : 1 h 55 min
Overall bit rate : 14.4 Mb/s
Encoded date : UTC 2017-05-21 07:58:37
Writing application : mkvmerge v12.0.0 ('Trust / Lust') 64bit
Writing library : libebml v1.3.4 + libmatroska v1.4.5

Video
ID : 1
Format : AVC
Format/Info : Advanced Video Codec
Format profile : High@L4.1
Format settings, CABAC : Yes
Format settings, ReFrames : 5 frames
Codec ID : V_MPEG4/ISO/AVC
Duration : 1 h 55 min
Bit rate : 11.0 Mb/s
Width : 1 920 pixels
Height : 800 pixels
Display aspect ratio : 2.40:1
Frame rate mode : Constant
Frame rate : 23.976 (24000/1001) FPS
Color space : YUV
Chroma subsampling : 4:2:0
Bit depth : 8 bits
Scan type : Progressive
Bits/(Pixel*Frame) : 0.299
Stream size : 8.86 GiB (76%)
Writing library : x264 core 148 r2665kMod a01e339
Encoding settings : cabac=1 / ref=5 / deblock=1:-3:-3 / analyse=0x3:0x133 / me=umh / subme=11 / psy=1 / fade_compensate=0.00 / psy_rd=0.85:0.00 / mixed_ref=1 / me_range=48 / chroma_me=1 / trellis=2 / 8x8dct=1 / cqm=0 / deadzone=21,11 / fast_pskip=0 / chroma_qp_offset=-2 / threads=24 / lookahead_threads=4 / sliced_threads=0 / nr=0 / decimate=0 / interlaced=0 / bluray_compat=0 / constrained_intra=0 / fgo=0 / bframes=8 / b_pyramid=2 / b_adapt=2 / b_bias=0 / direct=3 / weightb=1 / open_gop=0 / weightp=2 / keyint=240 / keyint_min=24 / scenecut=40 / intra_refresh=0 / rc=2pass / mbtree=0 / bitrate=11000 / ratetol=1.0 / qcomp=0.70 / qpmin=0 / qpmax=69 / qpstep=4 / cplxblur=20.0 / qblur=0.5 / ip_ratio=1.20 / pb_ratio=1.20 / aq=3:0.80
Language : English
Default : Yes
Forced : No

Audio #1
ID : 2
Format : AC-3
Format/Info : Audio Coding 3
Format settings, Endianness : Big
Codec ID : A_AC3
Duration : 1 h 55 min
Bit rate mode : Constant
Bit rate : 384 kb/s
Channel(s) : 6 channels
Channel positions : Front: L C R, Side: L R, LFE
Sampling rate : 48.0 kHz
Frame rate : 31.250 FPS (1536 spf)
Bit depth : 16 bits
Compression mode : Lossy
Stream size : 317 MiB (3%)
Title : MVO
Language : Russian
Service kind : Complete Main
Default : Yes
Forced : No

Audio #2
ID : 3
Format : DTS
Format/Info : Digital Theater Systems
Mode : 16
Format settings, Endianness : Big
Codec ID : A_DTS
Duration : 1 h 55 min
Bit rate mode : Constant
Bit rate : 1 510 kb/s
Channel(s) : 6 channels
Channel positions : Front: L C R, Side: L R, LFE
Sampling rate : 48.0 kHz
Frame rate : 93.750 FPS (512 spf)
Bit depth : 24 bits
Compression mode : Lossy
Stream size : 1.22 GiB (10%)
Title : AVO
Language : Russian
Default : No
Forced : No

Audio #3
ID : 4
Format : DTS
Format/Info : Digital Theater Systems
Mode : 16
Format settings, Endianness : Big
Codec ID : A_DTS
Duration : 1 h 55 min
Bit rate mode : Constant
Bit rate : 1 509 kb/s
Channel(s) : 6 channels
Channel positions : Front: L C R, Side: L R, LFE
Sampling rate : 48.0 kHz
Frame rate : 93.750 FPS (512 spf)
Bit depth : 24 bits
Compression mode : Lossy
Stream size : 1.22 GiB (10%)
Title : Original
Language : English
Default : No
Forced : No

Text #1
ID : 5
Format : UTF-8
Codec ID : S_TEXT/UTF8
Codec ID/Info : UTF-8 Plain Text
Duration : 1 h 49 min
Bit rate : 77 b/s
Count of elements : 1849
Stream size : 62.4 KiB (0%)
Title : Full
Language : English
Default : No
Forced : No

Text #2
ID : 6
Format : UTF-8
Codec ID : S_TEXT/UTF8
Codec ID/Info : UTF-8 Plain Text
Duration : 1 h 50 min
Bit rate : 79 b/s
Count of elements : 1905
Stream size : 63.9 KiB (0%)
Title : SDH
Language : English
Default : No
Forced : No

Menu
00:00:00.000 : en:00:00:00.000
00:04:21.094 : en:00:04:21.094
00:10:09.984 : en:00:10:09.984
00:16:15.391 : en:00:16:15.391
00:25:07.172 : en:00:25:07.172
00:31:55.247 : en:00:31:55.247
00:38:49.661 : en:00:38:49.661
00:45:43.491 : en:00:45:43.491
00:52:27.394 : en:00:52:27.394
01:00:31.670 : en:01:00:31.670
01:07:38.263 : en:01:07:38.263
01:12:04.904 : en:01:12:04.904
01:18:36.045 : en:01:18:36.045
01:24:36.947 : en:01:24:36.947
01:31:41.121 : en:01:31:41.121
01:37:26.674 : en:01:37:26.674
01:43:35.167 : en:01:43:35.167
01:47:11.675 : en:01:47:11.675

pb.wtf



Скачать Основатель через торрент http://s019.radikal.ru/i631/1705/61/b2af135e08a1.jpg Скачать фильм Основатель через торрент бесплантно в хорошем качестве Описание: Фильм расскажет о жизни Рэя Крока, человека создавшего самую известную в мире сеть ресторанов быстрого обслуживания — McDonald`s. ... 9.2 10 13
Info! Золотая раздача, скачанное не засчитывается.
Торрент: Зарегистрирован [2017-05-21 19:05] · скачан: 143 раз
Статус: √ проверено
Размер: 11.6 GB
Как cкачать? Как скачать Основатель через торрент | qTorrent

% Раздел Тема Автор DL S | L
Фильмы 2016 [DVDrip, WEB-DLRip, HDrip] (DUB, MVO) [ 2.13 GB ] Основатель / The Founder [2016 биография история BDRip] - Twi7ter Скачать
36 | 1
Фильмы [HD 720p, 1080p] (Хороший звук DUB, MVO) [ 5.23 GB ] Основатель / The Founder [2016 биография история BDRip 720p] bober100 Скачать
4 | 0
Фильмы 2016 [DVDrip, WEB-DLRip, HDrip] (DUB, MVO) [ 749 MB ] Основатель / The Founder [2016 биография история BDRip] bober100 Скачать
1 | 0
Фильмы 2016 [DVDrip, WEB-DLRip, HDrip] (DUB, MVO) [ 1.41 GB ] Основатель / The Founder [2016 биография история BDRip] - Twi7ter Скачать
5 | 0
Фильмы 2016 [DVDrip, WEB-DLRip, HDrip] (DUB, MVO) [ 2.17 GB ] Основатель / The Founder [2016 биография история HDRip] bober100 Скачать
3 | 0
Фильмы [HD 720p, 1080p] (Хороший звук DUB, MVO) [ 10.39 GB ] Основатель / The Founder [2016 биография история BDRip 1080p] bober100 Скачать
2 | 0
Фильмы [HD 720p, 1080p] (Хороший звук DUB, MVO) [ 5.74 GB ] Основатель / The Founder [2016 биография история BDRip 720p by msltel] 2 x MVO 3 x AVO msltel Скачать
17 | 1

28-11-2019 20:33  

Отключить всю рекламу на сайте

21-05-2017 19:53 Основатель Скачать торрент  

2 часа смотреть про хот дог , круто.pb.wtf



21-05-2017 21:16 Основатель Скачать торрент  

Хасан005 писал(а):

2 часа смотреть про хот дог , круто.

про котлету жы ж pb.wtf



21-05-2017 22:32 Основатель Скачать торрент  

Димон_ писал(а):

Хасан005 писал(а):

2 часа смотреть про хот дог , круто.

про котлету жы ж

про картоху фри же жи
pb.wtf



20-06-2017 20:03 Основатель Скачать торрент  

И про ненормального идиота, заложившего дом жены и т.д. Так бы спал себе спокойно и не парился.
....Удивляюсь себе, но впервые лет за 15 пересмотрел что-то через неделю до конца без отрыва с неменьшим интересом. И не то что пожрать хотелось в Мадосе, нет. Захотелось понять, как в 52 можно на что-то или на кого-то так прыгать. Бэтмен хорош конечно, классно отработал со своим прототипом и режиссером. с Есаревым не стал пересматривать, показалось хуже. Спс авторам, и раздачи в т.ч. pb.wtf



16-07-2017 13:18 Основатель Скачать торрент  

Igorrek писал(а):

И про ненормального идиота, заложившего дом жены и т.д. Так бы спал себе спокойно и не парился.
....Удивляюсь себе, но впервые лет за 15 пересмотрел что-то через неделю до конца без отрыва с неменьшим интересом. И не то что пожрать хотелось в Мадосе, нет. Захотелось понять, как в 52 можно на что-то или на кого-то так прыгать. Бэтмен хорош конечно, классно отработал со своим прототипом и режиссером. с Есаревым не стал пересматривать, показалось хуже. Спс авторам, и раздачи в т.ч.

Фильм потрясающий, сначала даже смотреть не хотел, но начал и не смог оторваться, прямо как "Волк с Уолл-Стрит". Моя основная мысль об этом фильме: талантливый немолодой жулик отжал и развил чужой бизнес, жулик потому что обманул своих партнеров. В 52 года это сделать очень непросто, особенно сейчас, когда все и вся распилено, продано, заложено и перезаложено. Но и у нас появляются довольно мощные франшизы, например сеть ломбардов "Аврора", у нас в Оренбурге уже 12 ломбардов. Это не такая важная вещь как рестораны (мы вообще не ходим туда), но если что купить из техники нужно, илу в ломбард, там много телефонов хороших и дешевых (в т.ч. новых!), инструменты, ноутбуки, планшеты, короче всем рекомендую.pb.wtf



    Дорогой пользователь! Огромная просьба, поблагодарите релизера, оцените раздачу и оставьте свои комментарий, если Вы скачали Основатель через торрент бесплатно! Внесите свою лепту в развитие PiratBit!
    Комментировать посты могут только пользователи прошедшие не сложную регистрацию
    Показать сообщения:    

    Основатель через торрент
    Скачать бесплатно Основатель
    Основатель скачать торрент
    Основатель смотреть онлайн
    Cкачать фильм Основатель бесплатно
    Основатель скачать торрент в хорошем качестве
    Основатель смотреть онлайн бесплатно в хорошем качестве


    Вы не можете начинать темы
    Вы не можете отвечать на сообщения
    Вы не можете редактировать свои сообщения
    Вы не можете удалять свои сообщения
    Вы не можете голосовать в опросах
    Вы не можете прикреплять файлы к сообщениям
    Вы можете скачивать файлы