Ссылка на приватное зеркало всего за 1$. Внимание количество ограничено!!!

iTunes

iTunes

iTunes

1

iTunes

iTunes

iTunes

iTunes

iTunes

30
pack

Новость дня

ВАЖНО

!!Акция!!

Alien_RageХит недели

RePack

Resident Evil 21

ИГРА 18+

pack

RePack

jed

!!Акция!!

Alien_Rage

RePack

fifa19

RePack

Assassins Creed: Odyssey

RePack

NEED FOR SPEED™ PAYBACK

4 сезон

9 сезон

Бесстыжие 9 сезон

Все сериалы

все сериалы на PB.wtf

RePack

FAR CRY 5
  

Городские птички (Юлия Белая) [2015, Комедия, мелодрама, WEB-DLRip] pb.wtf

Городские птички через торрент pb.wtf

Размер: 1.37 GB | Добавлен: 3 года назад | Торрент скачан:61 раз
Скачать  

22-05-2017 04:30 Городские птички Скачать торрент  

Городские птички
Год выпуска: 2015
Страна: Россия
Жанр: Комедия, мелодрама
Продолжительность: 01:24:07
Перевод: Не требуется
Субтитры: отсутствуют

Режиссер: Юлия Белая



В ролях:

Евгения Афонская, Евгения Громова, Анна Воркуева, Филипп Авдеев, Александр Горчилин, Харальд Розенстрём, Елена Махова, Артем Сучков, Роман Хан

Описание:

В центре нашего внимания — романтические истории трех подруг. Маша — редактор в детском издательстве, полноватая, закомплексован-ная, из хорошей семьи, попадает в совершенно неожиданную для нее ситуацию — просыпается с похмелья в боксерском клубе. Настя продает модные вещи, деловая, самостоятельная, снимает квар-тиру со своим парнем Романом — начинающим татуировщиком. Настя случайно узнает, что Роман ей изменил, и решает ему отомстить. Рита — администратор в хостеле, месте встреч подруг, натура романтич-ная. Из-за боязни высоты мало путешествует, за это шутливо отыгрывается на посетителях-иностранцах: подпаивает их и обыгрывает в настольный хоккей. Но встреча с одним из гостей, Харольдом, заставляет Риту по-другому взглянуть на все вокруг. Каждая из героинь пытается найти и удержать любовь, но это не так-то просто!

Качество: WEB-DLRip
Формат: AVI
Видео кодек: XviD
Аудио кодек: AC3

Видео: XviD, 2125 kb/s, 720х400 , 25 fps, 0.295 bit/pixel
Аудио#1: AC3, 48,0 КГц, 2 ch, 192 kb/s
скриншот   скриншот   скриншот  

Общее
Полное имя : D:\Gorodskie.ptichki.2016.XviD.MegaPeer.avi
Формат : AVI
Формат/Информация : Audio Video Interleave
Размер файла : 1,37 Гбайт
Продолжительность : 1 ч. 24 м.
Общий поток : 2325 Кбит/сек

Видео
Идентификатор : 0
Формат : MPEG-4 Visual
Профиль формата : Advanced Simple@L5
Параметр BVOP формата : 1
Параметр QPel формата : Нет
Параметр GMC формата : Без точки перехода
Параметр матрицы формата : Выборочная
Идентификатор кодека : XVID
Идентификатор кодека/Подсказка : XviD
Продолжительность : 1 ч. 24 м.
Битрейт : 2125 Кбит/сек
Ширина : 720 пикселей
Высота : 400 пикселей
Соотношение сторон : 16:9
Частота кадров : 25,000 кадров/сек
Цветовое пространство : YUV
Субдискретизация насыщенности : 4:2:0
Битовая глубина : 8 бит
Тип развёртки : Прогрессивная
Метод сжатия : С потерями
Бит/(Пиксели*Кадры) : 0.295
Размер потока : 1,25 Гбайт (91%)
Библиотека кодирования : XviD 73

Аудио
Идентификатор : 1
Формат : AC-3
Формат/Информация : Audio Coding 3
Расширение режима : CM (complete main)
Параметр Endianness формата : Big
Идентификатор кодека : 2000
Продолжительность : 1 ч. 24 м.
Вид битрейта : Постоянный
Битрейт : 192 Кбит/сек
Каналы : 2 канала
Расположение каналов : Front: L R
Частота : 48,0 КГц
Частота кадров : 31,250 кадров/сек (1536 spf)
Метод сжатия : С потерями
Размер потока : 116 Мбайт (8%)
Выравнивание : Соединение по промежуткам
Продолжительность промежутка : 64 мс. (1,60 видеокадра)
Время предзагрузки промежутка : 192 мс.
Заголовок : Rus

pb.wtf



Скачать Городские птички через торрент http://i075.radikal.ru/1705/7a/8eac635913c4.jpg Скачать фильм Городские птички через торрент бесплантно в хорошем качестве Описание: В центре нашего внимания — романтические истории трех подруг. Маша — редактор в детском издательстве, полноватая, ... 7 10 6
Торрент: Зарегистрирован [2017-05-22 04:30] · скачан: 61 раз
Статус: √ проверено
Размер: 1.37 GB
Как cкачать? Как скачать Городские птички через торрент | qTorrent

% Раздел Тема Автор DL S | L
Наши фильмы (HD, WEB-DL 720p, 1080p) [ 1.62 GB ] Городские птички [2015 WEB-DLRip 720p] bober100 Скачать
1 | 0
HD ролики [ 220 MB ] Под пение птичек симпатичная сикуха огребает в очко в городском парке. / Bibixxx. [2012 All Sex Oral Anal Amateur. HD 1080p] Pir@tya2010 Скачать
1 | 0

28-11-2019 20:33  

Отключить всю рекламу на сайте

    Дорогой пользователь! Огромная просьба, поблагодарите релизера, оцените раздачу и оставьте свои комментарий, если Вы скачали Городские птички через торрент бесплатно! Внесите свою лепту в развитие PiratBit!
    Комментировать посты могут только пользователи прошедшие не сложную регистрацию
    Показать сообщения:    

    Городские птички через торрент
    Скачать бесплатно Городские птички
    Городские птички скачать торрент
    Городские птички смотреть онлайн
    Cкачать фильм Городские птички бесплатно
    Городские птички скачать торрент в хорошем качестве
    Городские птички смотреть онлайн бесплатно в хорошем качестве


    Вы не можете начинать темы
    Вы не можете отвечать на сообщения
    Вы не можете редактировать свои сообщения
    Вы не можете удалять свои сообщения
    Вы не можете голосовать в опросах
    Вы не можете прикреплять файлы к сообщениям
    Вы можете скачивать файлы