Ссылка на приватное зеркало нашего сайта всего за 1$. Внимание количество ограничено!!!

2 сезон

iTunes

1 сезон

1

2 сезон

2 сезон

iTunes

1 сезон

RePack

30

Ultimate

ВАЖНО

ИГРА 18+

pack

RePack

MK11
pack

Забери бонус

RePack

jed

!!Акция!!

Alien_Rage

RePack

fifa19

RePack

Assassins Creed: Odyssey

RePack

NEED FOR SPEED™ PAYBACK

4 сезон

9 сезон

Бесстыжие 9 сезон

Все сериалы

все сериалы на PB.wtf

RePack

FAR CRY 5
  

Твин Пикс / Twin Peaks / Сезон: 3 / Серии 1-18 (18) (Дэвид Линч) [2017, триллер, мистика, драма, детектив, WEBRip 720p] [MVO] (Amedia) pb.wtf

Твин Пикс через торрент pb.wtf

Размер: 26 GB | Добавлен: 3 года 2 мес. назад | Торрент скачан:109 раз
Скачать  

22-05-2017 07:07 Твин Пикс Скачать торрент  

Твин Пикс / Twin Peaks


Год выпуска: 2017
Страна: США
Жанр: триллер, мистика, драма, детектив
Продолжительность: 1 x ~ 01:00:00
Озвучание: Профессиональное (многоголосое, закадровое) (Amedia)

Режиссеры: Дэвид Линч / David Lynch

В ролях: Кайл МакЛоклен, Майкл Онткин, Шерил Ли, Лара Флинн Бойл, Шерилин Фенн, Рэй Уайз, Мигель Феррер, Дэвид Линч, Билли Зейн, Хэзер Грэмс и др.

Описание История начинается с известия о находке обнаженного тела Лоры Палмер, «завернутого в полиэтилен» и выброшенного волнами на берег озера. В ходе расследования перед внимательными взглядами агента Купера, шерифа Трумана и его помощников проходят разные жители Твин Пикс. Постепенно зритель открывает для себя темную и страшную сторону жизни обитателей на первый взгляд тихого и мирного городка.
rating

Качество: WEBRip 720p
Формат: MKV
Видео кодек: AVC
Аудио кодек: AC3
Видео: MPEG-4 AVC, ~ 1902 Кбит/с, 1280x718, 23.976 fps
Аудио: 48 kHz, AC3 Dolby Digital, 2 ch, ~192.00 kbps avg [Amedia]
Аудио: 48 kHz, AC3 Dolby Digital, 6 ch, ~384.00 kbps avg [Eng]
Внимание! Раздача ведётся путём добавления новых серий; при каждом добавлении создаётся новый торрент. Чтобы начать докачку новой серии, пользователям необходимо сделать следующее:
(1) остановить скачивание,
(2) удалить старый торрент у себя из клиента (старые серии удалять не надо),
(3) скачать новый торрент и запустить его у себя в клиенте вместо старого, при этом указать клиенту путь в старую папку куда и должно происходить скачивание новых серий.
Ваш клиент при этом должен произвести хеширование (проверку) старой папки (если не производит сам - помогите ему сделать это), и будет докачивать только те серии которых у вас ещё нет. Старые серии при этом не удаляются, а продолжают раздаваться!
Eсли вы уже удалили старые серии, то предотвратить повторную закачку старых серий можно, отжав галочку в соответствующих местах при запуске нового торрента. По возможности, желательно не удалять старые серии как можно дольше чтобы релизёр не столько продолжал раздавать старые серии, а смог сконцентрироваться на новых.
General
Unique ID : 250960460080962144430856969286253016231 (0xBCCD39FB6D27EA7894199621687FF4A7)
Complete name : E:\Twin Peaks (Season 03) Amedia 720\Twin Peaks.S03E01.720.Amed1a.mkv
Format : Matroska
Format version : Version 4 / Version 2
File size : 1.03 GiB
Duration : 58mn 40s
Overall bit rate : 2 524 Kbps
Encoded date : UTC 2017-05-22 04:30:26
Writing application : mkvmerge v8.3.0 ('Over the Horizon') 64bit
Writing library : libebml v1.3.1 + libmatroska v1.4.2

Video
ID : 1
Format : AVC
Format/Info : Advanced Video Codec
Format profile : High@L4.1
Format settings, CABAC : Yes
Format settings, ReFrames : 5 frames
Codec ID : V_MPEG4/ISO/AVC
Duration : 58mn 40s
Bit rate : 1 898 Kbps
Width : 1 280 pixels
Height : 718 pixels
Display aspect ratio : 16:9
Frame rate mode : Constant
Frame rate : 23.976 fps
Color space : YUV
Chroma subsampling : 4:2:0
Bit depth : 8 bits
Scan type : Progressive
Bits/(Pixel*Frame) : 0.086
Stream size : 797 MiB (75%)
Writing library : x264 core 148 r2762 90a61ec
Encoding settings : cabac=1 / ref=5 / deblock=1:0:0 / analyse=0x3:0x113 / me=hex / subme=8 / psy=1 / psy_rd=1.00:0.00 / mixed_ref=1 / me_range=16 / chroma_me=1 / trellis=2 / 8x8dct=1 / cqm=0 / deadzone=21,11 / fast_pskip=1 / chroma_qp_offset=-2 / threads=22 / lookahead_threads=3 / sliced_threads=0 / nr=0 / decimate=1 / interlaced=0 / bluray_compat=0 / constrained_intra=0 / bframes=3 / b_pyramid=2 / b_adapt=1 / b_bias=0 / direct=3 / weightb=1 / open_gop=0 / weightp=2 / keyint=250 / keyint_min=23 / scenecut=40 / intra_refresh=0 / rc_lookahead=50 / rc=crf / mbtree=1 / crf=18.0 / qcomp=0.60 / qpmin=0 / qpmax=69 / qpstep=4 / ip_ratio=1.40 / aq=1:1.00
Default : Yes
Forced : No
Color range : Limited
Matrix coefficients : BT.709

Audio #1
ID : 2
Format : AC-3
Format/Info : Audio Coding 3
Mode extension : CM (complete main)
Format settings, Endianness : Big
Codec ID : A_AC3
Duration : 58mn 40s
Bit rate mode : Constant
Bit rate : 192 Kbps
Channel(s) : 2 channels
Channel positions : Front: L R
Sampling rate : 48.0 KHz
Compression mode : Lossy
Stream size : 80.6 MiB (8%)
Language : Russian
Default : Yes
Forced : No

Audio #2
ID : 3
Format : AC-3
Format/Info : Audio Coding 3
Mode extension : CM (complete main)
Format settings, Endianness : Big
Codec ID : A_AC3
Duration : 58mn 40s
Bit rate mode : Constant
Bit rate : 384 Kbps
Channel(s) : 6 channels
Channel positions : Front: L C R, Side: L R, LFE
Sampling rate : 48.0 KHz
Compression mode : Lossy
Stream size : 161 MiB (15%)
Language : English
Default : No
Forced : No
pb.wtf



Скачать Твин Пикс через торрент http://i95.fastpic.ru/big/2017/0522/9c/18ae4004382ba15c70db6d1ca936a79c.png Скачать фильм Твин Пикс через торрент бесплантно в хорошем качестве Описание История начинается с известия о находке обнаженного тела Лоры Палмер, «завернутого в полиэтилен» и выброшенного волнами на берег ... 9.9 10 21
Info! Золотая раздача, скачанное не засчитывается.
Торрент: Зарегистрирован [2017-09-05 14:29] · скачан: 109 раз
Статус: √ проверено
Размер: 26 GB
Как cкачать? Как скачать Твин Пикс через торрент | qTorrent

% Раздел Тема Автор DL S | L
Зарубежные сериалы [ 16.5 GB ] Твин Пикс / Twin Peaks / Сезон: 3 / Серии: 1-18 [2017 BDRip-AVC] MVO aleksan55 Скачать
2 | 0
Зарубежные сериалы [ 12.34 GB ] Твин Пикс / Twin Peaks / Сезон: 3 серии 1-18 [2017 WEB-DLRip] [MVO] killermax2013 Скачать
2 | 0
Зарубежные сериалы [ 11.06 GB ] Твин Пикс / Twin Peaks / Сезон 3 / Серии 1-18 из 18 [2017 WEBRip] MVO [LostFilm] bober100 Скачать
1 | 0
Зарубежные сериалы [ 88.11 GB ] Твин Пикс / Twin Peaks / Сезон: 3 / Серии 1-18 [2017 WEBRip 1080p] [MVO] killermax2013 Скачать
2 | 0
Зарубежные сериалы [ 6.49 GB ] Твин Пикс / Twin Peaks / Сезон: 3 серии 1-6 [2017 WEBRip] [MVO] killermax2013 Скачать
1 | 0
Фильмы с украинским озвучиванием [ 11.06 GB ] Твин Пикс / Twin Peaks / Сезон: 3 / Серии 1-18 [2017 WEBRip] [Ukr DVO] killermax2013 Скачать
1 | 0
Зарубежные сериалы [ 3.47 GB ] Твин Пикс / Twin Peaks / Сезон: 3 серии 1-5 [2017 WEBRip] [MVO] killermax2013 Скачать
1 | 0


Последний раз редактировалось: killermax2013 (2017-09-05 14:29), всего редактировалось 6 раз(а)

28-11-2019 20:33  

Отключить всю рекламу на сайте

22-05-2017 07:30 Твин Пикс Скачать торрент  

С анонсом второго сезона пытался пересмотреть первый.
Вообще не зашел, сломался на первой серии !
Хоть бы второй был интересен !!
Автору спасибо !!! pb.wtf



22-05-2017 21:44 Твин Пикс Скачать торрент  

наконец то...pb.wtf



19-06-2017 11:27 Твин Пикс Скачать торрент  

Линч - наркоман. Опять собрал уродов, только ещё больше и жёстче.pb.wtf



01-08-2017 00:04 Твин Пикс Скачать торрент  

Капец!
В Голландию что-ли ездил. Курнул там и с собой прихватил :)pb.wtf



24-08-2017 16:02 Твин Пикс Скачать торрент  

когда новые серии выложите???pb.wtf



    Дорогой пользователь! Огромная просьба, поблагодарите релизера, оцените раздачу и оставьте свои комментарий, если Вы скачали Твин Пикс через торрент бесплатно! Внесите свою лепту в развитие PiratBit!
    Комментировать посты могут только пользователи прошедшие не сложную регистрацию
    Показать сообщения:    

    Твин Пикс через торрент
    Скачать бесплатно Твин Пикс
    Твин Пикс скачать торрент
    Твин Пикс смотреть онлайн
    Cкачать фильм Твин Пикс бесплатно
    Твин Пикс скачать торрент в хорошем качестве
    Твин Пикс смотреть онлайн бесплатно в хорошем качестве


    Вы не можете начинать темы
    Вы не можете отвечать на сообщения
    Вы не можете редактировать свои сообщения
    Вы не можете удалять свои сообщения
    Вы не можете голосовать в опросах
    Вы не можете прикреплять файлы к сообщениям
    Вы можете скачивать файлы