новый адрес пиратбит piratbit
Мега распродажа FORZA HORIZON 4 ULTIMATE+ВСЕ DLC+ОНЛАЙН всего за 499р. 349 руб. (супер цена). Внимание количество ограничено!!!

iTunes

1+1

iTunes

мы

iTunes

1

iTunes

Чернобыль

iTunes

Ральф против интернета

Лицензия

ПШазам

Лицензия

Игра престолов

Лицензия

30
pack

ВАЖНО

!!Акция!!

Alien_RageХит недели

RePack

Resident Evil 21

ИГРА 18+

pack

RePack

Metro:Exodus

!!Акция!!

Alien_Rage

RePack

fifa19

RePack

Assassins Creed: Odyssey

RePack

NEED FOR SPEED™ PAYBACK

3 сезон

9 сезон

Бесстыжие 9 сезон

Все сериалы

все сериалы на PB.wtf

RePack

FAR CRY 5
Ребята, катастрофически не хватает 1900р. для оплаты серверов за Октябрь (всвязи с блокировками трафик упал в 3 раза), 1-2р., выручайте.
  

Фронт в тылу врага (Игорь Гостев) [1981, СССР, Чехословакия, драма, военный, DVDRip от AVP Studio] pb.wtf

Фронт в тылу врага через торрент pb.wtf

Размер: 1.46 GB | Добавлен: 2 года 5 мес. назад | Торрент скачан:12 раз
Скачать  

22-05-2017 08:08 Фронт в тылу врага Скачать торрент  

Фронт в тылу врага
Страна: СССР, Чехословакия
Производство: Мосфильм, Баррандов (ЧССР), ДЕФА

Жанр: драма, военный
Год выпуска: 1981
Продолжительность: 02:29:48 (01:12:02 + 01:17:46)

Перевод: Не требуется
Cубтитры: нет
Оригинальная аудиодорожка: русский

Режиссер: Игорь Гостев

В ролях:
Вячеслав Тихонов, Валерия Заклунная, Евгений Матвеев, Иван Лапиков, Александр Михайлов, Вайва Майнелите, Тофик Мирзоев, Виктор Шульгин, Лев Поляков, Леонид Дьячков, Юрий Назаров, Михаил Кокшенов, Евгений Леонов-Гладышев, Раиса Рязанова, Паул Буткевич, Игорь Владимиров, Елизавета Солодова, Андро Кобаладзе, Владислав Стржельчик, Борис Химичев, Харри Пич, Ханньо Хассе, Лутц Риман, Эрих Тиде, Хорст Гизе, Мати Клоорен, Вилнис Бекерис, Николай Полищук, Валентина Ананьина, Елена Кузьмина (II), Виктор Косых, Иван Косых, Александр Лукьянов (II), Александр Иванов (III), Нартай Бегалин, Филимон Сергеев, Николай Фомин (IV), Дита Капланова, Алоис Швеглик, Иржи Крампол, Рудольф Елинек, Карел Бьелоградски, Адольф Филип, Яна Робенкова, Михал Вейростах, Отто Шевчик, Милан Сполс, Хана Чижкова, Богуслав Личман, Михаил Матюшевский, Герт Гючов, Лев Фричинский...
Об актёрах подробней

Описание:
По роману С. Цвигуна «Мы вернемся».
По мотивам документального романа С.К. Цвигуна «Мы вернёмся».
Третий фильм трилогии ("Фронт без флангов", "Фронт за линией фронта") продолжает рассказ о боевых действиях отряда особого назначения в тылу врага.

Источник: DVD9 R5
Качество видео: DVDRip
Формат видео: AVI

Видео: 688x288 (2,40:1), 25 fps, XviD ~ 1191 kbps avg, 0.240 bit/pixel
Аудио: 48 kHz, Dolby Digital AC3 2.0, 192 kbps

Раздача от:
Общее
Полное имя : Front.v.tylu.vraga.1981.DVDRip_[New-team]_by_AVP_Studio\Серия 1.avi
Формат : AVI
Формат/Информация : Audio Video Interleave
Размер файла : 718 Мбайт
Продолжительность : 1 ч. 12 м.
Общий поток : 1393 Кбит/сек
Программа кодирования : VirtualDubMod 1.5.10.3 | www.virtualdub-fr.org || (build 2550/release)
Библиотека кодирования : VirtualDubMod build 2550/release

Видео
Идентификатор : 0
Формат : MPEG-4 Visual
Профиль формата : Advanced Simple@L5
Параметр BVOP формата : 1
Параметр QPel формата : Нет
Параметр GMC формата : Без точки перехода
Параметр матрицы формата : Выборочная
Идентификатор кодека : XVID
Идентификатор кодека/Подсказка : XviD
Продолжительность : 1 ч. 12 м.
Битрейт : 1191 Кбит/сек
Ширина : 688 пикселей
Высота : 288 пикселей
Соотношение сторон : 2,40:1
Частота кадров : 25,000 кадров/сек
Цветовое пространство : YUV
Субдискретизация насыщенности : 4:2:0
Битовая глубина : 8 бит
Тип развёртки : Прогрессивная
Метод сжатия : С потерями
Бит/(Пиксели*Кадры) : 0.240
Размер потока : 614 Мбайт (86%)
Библиотека кодирования : XviD 73

Аудио
Идентификатор : 1
Формат : AC-3
Формат/Информация : Audio Coding 3
Параметр Endianness формата : Big
Идентификатор кодека : 2000
Продолжительность : 1 ч. 12 м.
Вид битрейта : Постоянный
Битрейт : 192 Кбит/сек
Каналы : 2 канала
Расположение каналов : Front: L R
Частота : 48,0 КГц
Частота кадров : 31,250 кадров/сек (1536 spf)
Битовая глубина : 16 бит
Метод сжатия : С потерями
Размер потока : 98,9 Мбайт (14%)
Выравнивание : Разделение по промежуткам
Продолжительность промежутка : 40 мс. (1,00 видеокадр)
Время предзагрузки промежутка : 500 мс
pb.wtf



Скачать Фронт в тылу врага через торрент http://s019.radikal.ru/i602/1705/aa/0a76cb2b98e4.png Скачать фильм Фронт в тылу врага через торрент бесплантно в хорошем качестве Описание:По роману С. Цвигуна «Мы вернемся».По мотивам документального романа С.К. Цвигуна «Мы вернёмся».Третий фильм трилогии ("Фронт без ... 5 10 1
Info! Золотая раздача, скачанное не засчитывается.
Торрент: Зарегистрирован [2017-05-22 08:08] · скачан: 12 раз
Статус: √ проверено
Размер: 1.46 GB
Как cкачать? Как скачать Фронт в тылу врага через торрент | qTorrent

% Раздел Тема Автор DL S | L
Кино СССР [ 1.46 GB ] Фронт в тылу врага [1981 СССР Чехословакия военный DVDRip-AVC от AVP Studio] AVP Studio Скачать
1 | 0
Кино СССР [ 6.16 GB ] Фронт / Трилогия / Фильм 1: Фронт без флангов / Фильм 2: Фронт за линией фронта / Фильм 3: Фронт в тылу врага [1974-1981 ВОВ DVDRip] lug30 Скачать
1 | 0


>> Регистрируемся здесь <<






Отзывы и комментарии о схеме читаем и пишем здесь: ---> Отзывы и комментарии о схеме

Новые благодарочки в телеграм довольных пользователей:
скриншот   скриншот   скриншот   скриншот   скриншот
    Дорогой пользователь! Огромная просьба, поблагодарите релизера, оцените раздачу и оставьте свои комментарий, если Вы скачали Фронт в тылу врага через торрент бесплатно! Внесите свою лепту в развитие PiratBit!
    Комментировать посты могут только пользователи прошедшие не сложную регистрацию
    Показать сообщения:    

    Фронт в тылу врага через торрент
    Скачать бесплатно Фронт в тылу врага
    Фронт в тылу врага скачать торрент
    Фронт в тылу врага смотреть онлайн
    Cкачать фильм Фронт в тылу врага бесплатно
    Фронт в тылу врага скачать торрент в хорошем качестве
    Фронт в тылу врага смотреть онлайн бесплатно в хорошем качестве


    Вы не можете начинать темы
    Вы не можете отвечать на сообщения
    Вы не можете редактировать свои сообщения
    Вы не можете удалять свои сообщения
    Вы не можете голосовать в опросах
    Вы не можете прикреплять файлы к сообщениям
    Вы можете скачивать файлы