Всегда рабочее зеркало без VPN и Proxy просто перед .vidak.icu напиши любое слово или цифру, Пример http://wb7k.vidak.icu

MVO

2 сезон

2 сезон

1

1 сезон

iTunes

2 сезон

13

1 сезон

Распродажа

pack

Рекомендуем

Пиратка

30

ВАЖНО

RePack

MK11

RePack

jed

RePack

fifa19

RePack

RDR2

RePack

NEED FOR SPEED™ PAYBACK

Кинопоиск HD

6 сезон

 Острые козырьки 6 сезон

Все сериалы

все сериалы на PB.wtf

RePack

FAR CRY 5

Anonymous, нам критически не хватает 5601 руб. на оплату серверов и переферии за Апрель, помоги нам пожалуйста, вся надежда только на тебя. В благодарность мы отключим тебе всю рекламу на сайте!

×
  
Magnet ссылка

Rammstein: Париж! / Rammstein - Paris: Live (Йонас Окерлунд) [2017, документальный, музыка, концерт, BDRip 720p, Оригинальный] pb.wtf

Rammstein: Париж! через торрент pb.wtf

Размер: 7.39 GB | Добавлен: 4 года 11 мес. назад | Торрент скачан:208 раз
Смотреть онлайн Rammstein: Париж! | Скачать    Ребята, помогите собрать деньги на оплату серверов!!!

22-05-2017 10:36 Rammstein: Париж! Скачать торрент  



Rammstein: Париж! / Rammstein - Paris: LiveГод выпуска: 2017
Страна: Germany
Жанр: документальный, музыка, концерт
Продолжительность: 02:08:09
Перевод: Оригинальный
Субтитры: отсутствуют

Режиссер: Йонас Окерлунд

rating

В ролях:

Рихард Круспе, Пауль Ландерс, Тилль Линдеманн, Кристиан Лоренц, Оливер Ридель, Кристоф Шнайдер.

Описание:

Rammstein: Paris (рус. Rammstein: Париж) — концертный фильм группы Rammstein, вышедший в кинотеатрах 23 марта 2017 года. Записан на концертах в Париже 6 и 7 марта 2012 года в рамках тура Made in Germany.

В кинотеатрах релиз фильма состоялся 23 марта 2017 года. 19 мая 2017 года состоялся релиз на DVD, Blu-Ray, Vinyl и CD., а режиссером выступил швед Йонас Окерлунд (Jonas Akerlund), уже давно сотрудничающий с группой.

Ранее Окерлунд работал с METALLICA, SATYRICON, а также поп-звездами типа Мадонны и THE PRODIGY.

В прошлом году RAMMSTEIN дали несколько концертов, которые открывались новой песней, сейчас известной лишь как "Ramm 4". Текст этой песни, судя по всему, составлен из названий других песен RAMMSTEIN.

В 2015 году RAMMSTEIN выпустили виниловый бокс-сет "XXI", который, как следует из названия, посвящен 21-летию группы. В него вошли все шесть студийных альбомов группы, спродюсированных Якобом Хеллнером (Jacob Hellner) и ремастированных для 180-граммового винила Сванте Форсбоком (Svante Forsback). Кроме того, в боксе представлен двойной сборник раритетов, называющийся "Raritaten", включающий, в частности, ранее не издававшуюся версию песни "Los".

RAMMSTEIN не выпускали новых CD после "Liebe Ist Fur Alle Da". Тем временем вокалист Тилль Линдеманн (Till Lindemann) опубликовал в 2015 году дебютный альбом своего сайд-проекта LINDEMANN, а гитарист Ричард Круспе (Richard Z. Kruspe) годом ранее выпустил уже второй диск с сольным проектом EMIGRATE. Диск, называющийся "Silent So Long", издал в ноябре 2014 года лейбл Spin

Качество: BDRip 720p
Формат: MKV
Видео кодек: H.264
Аудио кодек: AC3/AAC

Видео: 1280x720 at 25.000 fps, MPEG-4 AVC, ~7500 kbps, 0.326 bit/pixel
Аудио#1: German: AC3, 48.0 kHz, 3/2 (L,C,R,l,r) + LFE ch, ~640 kbps
Аудио#2: German: AAC, 48.0 / 24.0 kHz, 2/0 (L,R) ch, ~128 kbps
01. Intro
02. Sonne
03. Wollt Ihr Das Bett In Flammen Sehen
04. Keine Lust
05. Sehnsucht
06. Asche Zu Asche
07. Feuer Frei!
08. Mutter
09. Mein Teil
10. Du Riechst So gut
11. Links 2-3-4
12. Du Hast
13. Haifisch
14. Buck Dich
15. Mann Gegen Mann
16. Ohne Dich
17. Mein Herz Brennt
18. Amerika
19. Ich Will
20. Engel
21. Pussy
22. Fruhling In Paris
скриншот   скриншот   скриншот   скриншот   скриншот  

скриншот   скриншот   скриншот   скриншот   скриншот  

General
Unique ID : 241271288596050575704041428917410201844 (0xB58328F202F36F8C9CC14640700A00F4)
Complete name : E:Rammstein- Paris!.(2017).BLU-RAY.720p.[-=DoMiNo=-].mkv
Format : Matroska
Format version : Version 4 / Version 2
File size : 7.39 GiB
Duration : 2 h 9 min
Overall bit rate : 8 197 kb/s
Movie name : Rammstein: Paris!
Encoded date : UTC 2017-05-22 03:41:35
Writing application : mkvmerge v12.0.0 ('Trust / Lust') 64bit
Writing library : libebml v1.3.4 + libmatroska v1.4.5
Attachments : poster.jpg

Video
ID : 1
Format : AVC
Format/Info : Advanced Video Codec
Format profile : High@L4.1
Format settings, CABAC : Yes
Format settings, ReFrames : 9 frames
Codec ID : V_MPEG4/ISO/AVC
Duration : 2 h 9 min
Bit rate : 7 500 kb/s
Width : 1 280 pixels
Height : 720 pixels
Display aspect ratio : 16:9
Frame rate mode : Constant
Frame rate : 25.000 FPS
Color space : YUV
Chroma subsampling : 4:2:0
Bit depth : 8 bits
Scan type : Progressive
Bits/(Pixel*Frame) : 0.326
Stream size : 6.69 GiB (91%)
Title : BLU-RAY_720p_RIP_BY_-=DoMiNo=-
Writing library : x264 core 148 r2762M 90a61ec
Encoding settings : cabac=1 / ref=9 / deblock=1:-3:-3 / analyse=0x3:0x133 / me=umh / subme=11 / psy=1 / psy_rd=1.00:0.10 / mixed_ref=1 / me_range=48 / chroma_me=1 / trellis=2 / 8x8dct=1 / cqm=0 / deadzone=21,11 / fast_pskip=0 / chroma_qp_offset=-3 / threads=6 / lookahead_threads=1 / sliced_threads=0 / nr=0 / decimate=1 / interlaced=0 / bluray_compat=0 / constrained_intra=0 / bframes=12 / b_pyramid=2 / b_adapt=2 / b_bias=0 / direct=3 / weightb=1 / open_gop=0 / weightp=2 / keyint=250 / keyint_min=25 / scenecut=40 / intra_refresh=0 / rc=2pass / mbtree=0 / bitrate=7500 / ratetol=1.0 / qcomp=0.60 / qpmin=0 / qpmax=69 / qpstep=4 / cplxblur=20.0 / qblur=0.5 / ip_ratio=1.40 / pb_ratio=1.30 / aq=1:1.00
Default : Yes
Forced : No

Audio #1
ID : 2
Format : AC-3
Format/Info : Audio Coding 3
Format settings, Endianness : Big
Codec ID : A_AC3
Duration : 2 h 9 min
Bit rate mode : Constant
Bit rate : 640 kb/s
Channel(s) : 6 channels
Channel positions : Front: L C R, Side: L R, LFE
Sampling rate : 48.0 kHz
Frame rate : 31.250 FPS (1536 spf)
Bit depth : 16 bits
Compression mode : Lossy
Stream size : 591 MiB (8%)
Title : AC-3_640
Service kind : Complete Main
Default : Yes
Forced : No

Audio #2
ID : 3
Format : AAC
Format/Info : Advanced Audio Codec
Format profile : HE-AAC / LC
Codec ID : A_AAC
Duration : 2 h 9 min
Bit rate : 128 kb/s
Channel(s) : 2 channels
Channel positions : Front: L R
Sampling rate : 48.0 kHz / 24.0 kHz
Frame rate : 23.438 FPS (1024 spf)
Compression mode : Lossy
Stream size : 118 MiB (2%)
Title : AAC-LC_320
Default : No
Forced : No

Menu
00:00:00.000 : en:Chapter 1
00:05:45.040 : en:Chapter 2
00:10:46.400 : en:Chapter 3
00:15:47.560 : en:Chapter 4
00:19:57.000 : en:Chapter 5
00:24:21.960 : en:Chapter 6
00:28:29.360 : en:Chapter 7
00:32:02.840 : en:Chapter 8
00:37:26.080 : en:Chapter 9
00:45:10.000 : en:Chapter 10
00:50:38.480 : en:Chapter 11
00:55:41.520 : en:Chapter 12
00:59:59.960 : en:Chapter 13
01:06:57.560 : en:Chapter 14
01:14:52.400 : en:Chapter 15
01:19:07.840 : en:Chapter 16
01:27:21.120 : en:Chapter 17
01:32:27.600 : en:Chapter 18
01:37:21.920 : en:Chapter 19
01:41:26.160 : en:Chapter 20
01:46:42.120 : en:Chapter 21
02:01:47.600 : en:Chapter 22

pb.wtf



Скачать Rammstein: Париж! через торрент http://s018.radikal.ru/i506/1705/e2/8e3bc8ea8f0d.jpg Скачать, смотреть онлайн Rammstein: Париж! бесплантно в хорошем качестве Описание: Rammstein: Paris (рус. Rammstein: Париж) — концертный фильм группы Rammstein, вышедший в кинотеатрах 23 марта 2017 года. Записан ... 10 10 10
Info! Золотая раздача, скачанное не засчитывается.
Торрент: Зарегистрирован [2017-05-22 10:36] · скачан: 208 раз
Статус: √ проверено
Размер: 7.39 GB
Как cкачать? Как скачать Rammstein: Париж! через торрент | UTorrent

% Раздел Тема Автор DL S | L
Концерты [ 11.61 GB ] Rammstein: Париж! / Rammstein - Paris: Live [2017 документальный музыка концерт BDRip-HEVC 1080p ] bober100 Скачать
1 | 0
Концерты [ 11.74 GB ] Rammstein: Париж! / Rammstein - Paris: Live [2017 документальный музыка концерт BDRip 1080p Оригинальный] bober100 Скачать
1 | 0
Концерты [ 2.17 GB ] Rammstein: Париж! / Rammstein - Paris: Live [2017 Концерт BDRip Оригинальный] bober100 Скачать
1 | 0

28-11-2019 20:33  

Отключить всю рекламу на сайте

    Дорогой пользователь! Огромная просьба, поблагодарите релизера, оцените раздачу и оставьте свои комментарий, если Вы скачали Rammstein: Париж! через торрент бесплатно!
    Комментировать посты могут только пользователи прошедшие не сложную регистрацию
    Показать сообщения:    

    Rammstein: Париж! через торрент
    Скачать бесплатно Rammstein: Париж!
    Rammstein: Париж! скачать торрент
    Rammstein: Париж! смотреть онлайн
    Cкачать фильм Rammstein: Париж! бесплатно
    Rammstein: Париж! скачать торрент в хорошем качестве
    Rammstein: Париж! смотреть онлайн бесплатно в хорошем качестве


    Вы не можете начинать темы
    Вы не можете отвечать на сообщения
    Вы не можете редактировать свои сообщения
    Вы не можете удалять свои сообщения
    Вы не можете голосовать в опросах
    Вы не можете прикреплять файлы к сообщениям
    Вы можете скачивать файлы