Ссылка на приватное зеркало нашего сайта всего за 1$. Внимание количество ограничено!!!

2 сезон

iTunes

1 сезон

1

2 сезон

2 сезон

iTunes

1 сезон

RePack

30

Ultimate

ВАЖНО

ИГРА 18+

pack

RePack

MK11
pack

Забери бонус

RePack

jed

!!Акция!!

Alien_Rage

RePack

fifa19

RePack

Assassins Creed: Odyssey

RePack

NEED FOR SPEED™ PAYBACK

4 сезон

9 сезон

Бесстыжие 9 сезон

Все сериалы

все сериалы на PB.wtf

RePack

FAR CRY 5
  

Твин Пикс / Twin Peaks / Сезон: 3 / Серии 1-18 (18) (Дэвид Линч) [2017, триллер, мистика, драма, детектив, WEBRip 1080p] [MVO] (Amedia) pb.wtf

Твин Пикс через торрент pb.wtf

Раздают: 1 [ 0 KB/s ]
Размер: 88.11 GB | Добавлен: 3 года 2 мес. назад | Торрент скачан:71 раз
Скачать  

23-05-2017 09:40 Твин Пикс Скачать торрент  

Твин Пикс / Twin Peaks


Год выпуска: 2017
Страна: США
Жанр: триллер, мистика, драма, детектив
Продолжительность: 1 x ~ 01:00:00
Озвучание: Профессиональное (многоголосое, закадровое) (Novamedia по заказу AMEDIA)
Субтитры: Английские

Режиссеры: Дэвид Линч / David Lynch

В ролях: Кайл МакЛоклен, Майкл Онткин, Шерил Ли, Лара Флинн Бойл, Шерилин Фенн, Рэй Уайз, Мигель Феррер, Дэвид Линч, Билли Зейн, Хэзер Грэмс и др.

Описание История начинается с известия о находке обнаженного тела Лоры Палмер, «завернутого в полиэтилен» и выброшенного волнами на берег озера. В ходе расследования перед внимательными взглядами агента Купера, шерифа Трумана и его помощников проходят разные жители Твин Пикс. Постепенно зритель открывает для себя темную и страшную сторону жизни обитателей на первый взгляд тихого и мирного городка.

|

Качество: WEBRip [1080p]
Формат: MKV
Видео кодек: AVC
Аудио кодек: AC3
Видео: MPEG-4 AVC, ~ 10.7 Мбит/с, 1920x1080, 23.976 fps
Аудио: 48 kHz, AC3 Dolby Digital, 2 ch, ~192.00 kbps avg [Amedia]
Аудио: 48 kHz, E-AC3 Dolby Digital, 6 ch, ~640.00 kbps avg [Eng]
Внимание! Раздача ведётся путём добавления новых серий; при каждом добавлении создаётся новый торрент. Чтобы начать докачку новой серии, пользователям необходимо сделать следующее:
(1) остановить скачивание,
(2) удалить старый торрент у себя из клиента (старые серии удалять не надо),
(3) скачать новый торрент и запустить его у себя в клиенте вместо старого, при этом указать клиенту путь в старую папку куда и должно происходить скачивание новых серий.
Ваш клиент при этом должен произвести хеширование (проверку) старой папки (если не производит сам - помогите ему сделать это), и будет докачивать только те серии которых у вас ещё нет. Старые серии при этом не удаляются, а продолжают раздаваться!
Eсли вы уже удалили старые серии, то предотвратить повторную закачку старых серий можно, отжав галочку в соответствующих местах при запуске нового торрента. По возможности, желательно не удалять старые серии как можно дольше чтобы релизёр не столько продолжал раздавать старые серии, а смог сконцентрироваться на новых.
General
Unique ID : 203392802514743883786653448811389419844 (0x99040764EA5ED55E90D6FA26C3AC8144)
Complete name : E:\Twin.Peaks.S03E01.WEBRip.1080p.mkv
Format : Matroska
Format version : Version 4 / Version 2
File size : 4.98 GiB
Duration : 1h 0mn
Overall bit rate : 11.8 Mbps
Encoded date : UTC 2017-05-22 09:26:57
Writing application : mkvmerge v6.9.1 ('Blue Panther') 32bit built on Apr 18 2014 18:15:44
Writing library : libebml v1.3.0 + libmatroska v1.4.1

Video
ID : 1
Format : AVC
Format/Info : Advanced Video Codec
Format profile : High@L4.1
Format settings, CABAC : Yes
Format settings, ReFrames : 4 frames
Codec ID : V_MPEG4/ISO/AVC
Duration : 1h 0mn
Bit rate : 10.7 Mbps
Width : 1 920 pixels
Height : 1 080 pixels
Display aspect ratio : 16:9
Frame rate mode : Constant
Frame rate : 23.976 fps
Color space : YUV
Chroma subsampling : 4:2:0
Bit depth : 8 bits
Scan type : Progressive
Bits/(Pixel*Frame) : 0.215
Stream size : 4.52 GiB (91%)
Writing library : x264 core 150 r2829+9 (master: d1fe6fd / tmod: 637083c) [X86_64]
Encoding settings : cabac=1 / ref=4 / deblock=1:-3:-3 / analyse=0x3:0x133 / me=umh / subme=11 / psy=1 / fade_compensate=0.00 / psy_rd=1.05:0.15 / mixed_ref=1 / me_range=48 / chroma_me=1 / trellis=2 / 8x8dct=1 / cqm=0 / deadzone=6,6 / fast_pskip=0 / chroma_qp_offset=-3 / threads=30 / lookahead_threads=7 / sliced_threads=0 / nr=0 / decimate=0 / interlaced=0 / bluray_compat=0 / constrained_intra=0 / fgo=0 / bframes=10 / b_pyramid=2 / b_adapt=2 / b_bias=0 / direct=3 / weightb=1 / open_gop=0 / weightp=2 / keyint=250 / keyint_min=23 / scenecut=40 / intra_refresh=0 / rc=crf / mbtree=0 / crf=17.0000 / qcomp=0.65 / qpmin=0:0:0 / qpmax=69:69:69 / qpstep=4 / ip_ratio=1.10 / pb_ratio=1.10 / aq=3:0.70 / aq-sensitivity=10.00 / aq-factor=1.00:1.00:1.00 / aq2=0 / aq3=0
Language : English
Default : Yes
Forced : No

Audio #1
ID : 2
Format : AC-3
Format/Info : Audio Coding 3
Mode extension : CM (complete main)
Format settings, Endianness : Big
Codec ID : A_AC3
Duration : 1h 0mn
Bit rate mode : Constant
Bit rate : 192 Kbps
Channel(s) : 2 channels
Channel positions : Front: L R
Sampling rate : 48.0 KHz
Compression mode : Lossy
Stream size : 83.2 MiB (2%)
Title : Amedia
Language : Russian
Default : Yes
Forced : No

Audio #2
ID : 3
Format : E-AC-3
Format/Info : Audio Coding 3
Format settings, Endianness : Big
Codec ID : A_EAC3
Duration : 1h 0mn
Bit rate mode : Constant
Bit rate : 640 Kbps
Channel(s) : 6 channels
Channel positions : Front: L C R, Side: L R, LFE
Sampling rate : 48.0 KHz
Compression mode : Lossy
Stream size : 277 MiB (5%)
Title : original
Language : English
Default : No
Forced : No

Text
ID : 4
Format : UTF-8
Codec ID : S_TEXT/UTF8
Codec ID/Info : UTF-8 Plain Text
Title : English
Language : English
Default : No
Forced : No

pb.wtf



Скачать Твин Пикс через торрент http://i92.fastpic.ru/big/2017/0522/01/6217eedbb35dfe8f0c51c4a4a0569f01.jpg Скачать фильм Твин Пикс через торрент бесплантно в хорошем качестве Описание История начинается с известия о находке обнаженного тела Лоры Палмер, «завернутого в полиэтилен» и выброшенного волнами на берег ... 8.4 10 9
Info! Золотая раздача, скачанное не засчитывается.
Торрент: Зарегистрирован [2017-09-04 12:20] · скачан: 71 раз
Статус: √ проверено
Размер: 88.11 GB
Как cкачать? Как скачать Твин Пикс через торрент | qTorrent

% Раздел Тема Автор DL S | L
Зарубежные сериалы [ 16.5 GB ] Твин Пикс / Twin Peaks / Сезон: 3 / Серии: 1-18 [2017 BDRip-AVC] MVO aleksan55 Скачать
2 | 0
Зарубежные сериалы [ 12.34 GB ] Твин Пикс / Twin Peaks / Сезон: 3 серии 1-18 [2017 WEB-DLRip] [MVO] killermax2013 Скачать
2 | 0
Зарубежные сериалы [ 11.06 GB ] Твин Пикс / Twin Peaks / Сезон 3 / Серии 1-18 из 18 [2017 WEBRip] MVO [LostFilm] bober100 Скачать
1 | 0
Зарубежные сериалы [ 26 GB ] Твин Пикс / Twin Peaks / Сезон: 3 / Серии 1-18 [2017 WEBRip 720p] [MVO] killermax2013 Скачать
1 | 0
Зарубежные сериалы [ 6.49 GB ] Твин Пикс / Twin Peaks / Сезон: 3 серии 1-6 [2017 WEBRip] [MVO] killermax2013 Скачать
1 | 0
Фильмы с украинским озвучиванием [ 11.06 GB ] Твин Пикс / Twin Peaks / Сезон: 3 / Серии 1-18 [2017 WEBRip] [Ukr DVO] killermax2013 Скачать
1 | 0
Зарубежные сериалы [ 3.47 GB ] Твин Пикс / Twin Peaks / Сезон: 3 серии 1-5 [2017 WEBRip] [MVO] killermax2013 Скачать
1 | 0


Последний раз редактировалось: killermax2013 (2017-09-04 12:20), всего редактировалось 5 раз(а)

28-11-2019 20:33  

Отключить всю рекламу на сайте

24-05-2017 21:12 Твин Пикс Скачать торрент  

Озвучка Amedia вообще не то. Надо в других попробовать.pb.wtf



31-07-2017 15:32 Твин Пикс Скачать торрент  

это продолжение первого или что то новое?pb.wtf



04-09-2017 21:20 Твин Пикс Скачать торрент  

acidjunk2010 писал(а):

это продолжение первого или что то новое?

Продолжение 2-го сезона.
Не затруднит кого-нибудь объяснить некоторые моменты 8-ой серии?
А точнее ВСЮ... всю серию! Что там происходит, а?
Тех, кто понял это досконально, единицы... И часть из них писали сценарий.pb.wtf



    Дорогой пользователь! Огромная просьба, поблагодарите релизера, оцените раздачу и оставьте свои комментарий, если Вы скачали Твин Пикс через торрент бесплатно! Внесите свою лепту в развитие PiratBit!
    Комментировать посты могут только пользователи прошедшие не сложную регистрацию
    Показать сообщения:    

    Твин Пикс через торрент
    Скачать бесплатно Твин Пикс
    Твин Пикс скачать торрент
    Твин Пикс смотреть онлайн
    Cкачать фильм Твин Пикс бесплатно
    Твин Пикс скачать торрент в хорошем качестве
    Твин Пикс смотреть онлайн бесплатно в хорошем качестве


    Вы не можете начинать темы
    Вы не можете отвечать на сообщения
    Вы не можете редактировать свои сообщения
    Вы не можете удалять свои сообщения
    Вы не можете голосовать в опросах
    Вы не можете прикреплять файлы к сообщениям
    Вы можете скачивать файлы