Ссылка на приватное зеркало нашего сайта всего за 1$. Внимание количество ограничено!!!

2 сезон

iTunes

1 сезон

1

iTunes

iTunes

iTunes

1 сезон

RePack

30

ИГРА 18+

pack

ВАЖНО

!!Акция!!

Alien_RageХит недели

RePack

MK11
pack

Забери бонус

RePack

jed

!!Акция!!

Alien_Rage

RePack

fifa19

RePack

Assassins Creed: Odyssey

RePack

NEED FOR SPEED™ PAYBACK

4 сезон

9 сезон

Бесстыжие 9 сезон

Все сериалы

все сериалы на PB.wtf

RePack

FAR CRY 5
  

Топор 2 (Режиссёрская версия) / Hatchet II (Director's cut) (Адам Грин) [2010, ужасы, триллер, комедия, BDRip 1080p by msltel] DVO, AVO pb.wtf

Топор 2 через торрент pb.wtf

Размер: 12.11 GB | Добавлен: 3 года 5 мес. назад | Торрент скачан:34 раза
Скачать  

23-05-2017 09:52 Топор 2 Скачать торрент  

Название: Топор 2
Оригинальное название: Hatchet II
Год выпуска: 2010
Страна: США
Жанр: ужасы, триллер, комедия
Продолжительность: 01:25:23
Перевод: профессиональный двухголосый, авторский

Режиссёр: Адам Грин

В ролях: Даниэль Харрис, Тони Тодд, Кэйн Ходдер, Парри Шен, Том Холланд (I), Р.Э. Михайлофф, Ай Бауэн, Алексис Питерс, Эд Экерман, Дэвид Фой, Колтон Данн, Рик МакКаллум, Джон Карл Бюхлер, Кэтрин Фиоре, Эрика Хэмилтон, Мерседес МакНаб, Джолей Фиореванти, Райли Вандербилт, Чарлэйн Девилльер, Сара Агор

Описание: После того как Мэрибет чудом вырывается из рук безумного маньяка Виктора Кроули, она узнаёт, что же связывало её семью с этим страшным человеком. Узнав всю правду, она полна решимости вернуться на болота с целой армией жестоко отомстить мяснику и вернуть тела своих близких...



Качество: BDRip 1080p
Формат: MKV
Видео: MPEG-4 AVC, 17.1 Mбит/с, 1920x1080
Аудио 1: русский, AC3, 192 kbps, 2 ch, 48 kHz [профессиональный двухголосый]
Аудио 2: русский, DTS, 1509 kbps, 6 ch, 48 kHz [авторский, Андрей Дольский]
Аудио 3: английский, DTS, 1509 kbps, 6 ch, 48 kHz [оригинал]
Имеются неименованные главы/чаптеры.
Общее
Уникальный идентификатор : 249112194205118383144466946903169722935 (0xBB6943705B1A9D80B6A7AA94BC066A37)
Полное имя : D:\Video\Топор 2.2010.DirCut.BDRip.1080p by msltel.mkv
Формат : Matroska
Версия формата : Version 4 / Version 2
Размер файла : 12,1 Гбайт
Продолжительность : 1 ч. 25 м.
Общий поток : 20,3 Мбит/сек
Название фильма : Rip by msltel
Дата кодирования : UTC 2017-05-23 07:18:04
Программа кодирования : mkvmerge v8.2.0 ('World of Adventure') 64bit
Библиотека кодирования : libebml v1.3.1 + libmatroska v1.4.2

Видео
Идентификатор : 1
Формат : AVC
Формат/Информация : Advanced Video Codec
Профиль формата : High@L4.1
Параметр CABAC формата : Да
Параметр ReFrames формата : 4 кадра
Идентификатор кодека : V_MPEG4/ISO/AVC
Продолжительность : 1 ч. 25 м.
Битрейт : 17,1 Мбит/сек
Ширина : 1920 пикселей
Высота : 1080 пикселей
Соотношение сторон : 16:9
Режим частоты кадров : Постоянный
Частота кадров : 23,976 (24000/1001) кадра/сек
Цветовое пространство : YUV
Субдискретизация насыщенности : 4:2:0
Битовая глубина : 8 бит
Тип развёртки : Прогрессивная
Бит/(Пиксели*Кадры) : 0.344
Размер потока : 10,2 Гбайт (84%)
Библиотека кодирования : x264 core 146 r2538 121396c
Настройки программы : cabac=1 / ref=4 / deblock=1:-3:-2 / analyse=0x3:0x113 / me=umh / subme=11 / psy=1 / psy_rd=1.00:0.15 / mixed_ref=1 / me_range=32 / chroma_me=1 / trellis=2 / 8x8dct=1 / cqm=0 / deadzone=21,11 / fast_pskip=0 / chroma_qp_offset=-3 / threads=6 / lookahead_threads=1 / sliced_threads=0 / nr=0 / decimate=1 / interlaced=0 / bluray_compat=0 / constrained_intra=0 / bframes=9 / b_pyramid=2 / b_adapt=2 / b_bias=0 / direct=1 / weightb=1 / open_gop=0 / weightp=2 / keyint=230 / keyint_min=23 / scenecut=40 / intra_refresh=0 / rc_lookahead=40 / rc=crf / mbtree=0 / crf=18.2 / qcomp=0.60 / qpmin=0 / qpmax=69 / qpstep=4 / vbv_maxrate=62500 / vbv_bufsize=78125 / crf_max=0.0 / nal_hrd=none / filler=0 / ip_ratio=1.40 / pb_ratio=1.30 / aq=1:1.00
Язык : English
Default : Да
Forced : Нет

Аудио #1
Идентификатор : 2
Формат : AC-3
Формат/Информация : Audio Coding 3
Параметр Endianness формата : Big
Идентификатор кодека : A_AC3
Продолжительность : 1 ч. 25 м.
Вид битрейта : Постоянный
Битрейт : 192 Кбит/сек
Каналы : 2 канала
Расположение каналов : Front: L R
Частота : 48,0 КГц
Частота кадров : 31,250 кадров/сек (1536 spf)
Битовая глубина : 16 бит
Метод сжатия : С потерями
Размер потока : 117 Мбайт (1%)
Заголовок : DVO
Язык : Russian
ServiceKind/String : Complete Main
Default : Да
Forced : Нет

Аудио #2
Идентификатор : 3
Формат : DTS
Формат/Информация : Digital Theater Systems
Режим : 16
Параметр Endianness формата : Big
Идентификатор кодека : A_DTS
Продолжительность : 1 ч. 25 м.
Вид битрейта : Постоянный
Битрейт : 1509 Кбит/сек
Каналы : 6 каналов
Расположение каналов : Front: L C R, Side: L R, LFE
Частота : 48,0 КГц
Частота кадров : 93,750 кадра/сек (512 spf)
Битовая глубина : 24 бит
Метод сжатия : С потерями
Размер потока : 922 Мбайт (7%)
Заголовок : AVO (Андрей Дольский)
Язык : Russian
Default : Нет
Forced : Нет

Аудио #3
Идентификатор : 4
Формат : DTS
Формат/Информация : Digital Theater Systems
Режим : 16
Параметр Endianness формата : Big
Идентификатор кодека : A_DTS
Продолжительность : 1 ч. 25 м.
Вид битрейта : Постоянный
Битрейт : 1509 Кбит/сек
Каналы : 6 каналов
Расположение каналов : Front: L C R, Side: L R, LFE
Частота : 48,0 КГц
Частота кадров : 93,750 кадра/сек (512 spf)
Битовая глубина : 24 бит
Метод сжатия : С потерями
Размер потока : 922 Мбайт (7%)
Заголовок : original
Язык : English
Default : Нет
Forced : Нет

Меню
00:00:00.000 : :Chapter 01
00:05:35.626 : :Chapter 02
00:11:19.345 : :Chapter 03
00:15:09.826 : :Chapter 04
00:21:25.784 : :Chapter 05
00:28:22.618 : :Chapter 06
00:31:29.221 : :Chapter 07
00:36:36.069 : :Chapter 08
00:40:03.401 : :Chapter 09
00:46:01.092 : :Chapter 10
00:51:03.227 : :Chapter 11
00:53:46.223 : :Chapter 12
00:57:20.854 : :Chapter 13
01:00:30.961 : :Chapter 14
01:02:35.752 : :Chapter 15
01:06:31.613 : :Chapter 16
01:11:25.990 : :Chapter 17
01:15:42.455 : :Chapter 18
01:21:25.296 : :Chapter 19
pb.wtf



Скачать Топор 2 через торрент http://s012.radikal.ru/i320/1705/22/152e4298b9b2.jpg Скачать фильм Топор 2 через торрент бесплантно в хорошем качестве Описание: После того как Мэрибет чудом вырывается из рук безумного маньяка Виктора Кроули, она узнаёт, что же связывало её семью с этим ... 8 10 4
Info! Золотая раздача, скачанное не засчитывается.
Торрент: Зарегистрирован [2017-05-23 09:52] · скачан: 34 раз
Статус: √ проверено
Размер: 12.11 GB
Как cкачать? Как скачать Топор 2 через торрент | qTorrent

% Раздел Тема Автор DL S | L
Фильмы [HD 720p, 1080p] (Хороший звук DUB, MVO) [ 4.36 GB ] Топор 2 / Hatchet II [2010 BDRip 720p by msltel] DVO AVO msltel Скачать
1 | 0

28-11-2019 20:33  

Отключить всю рекламу на сайте

    Дорогой пользователь! Огромная просьба, поблагодарите релизера, оцените раздачу и оставьте свои комментарий, если Вы скачали Топор 2 через торрент бесплатно! Внесите свою лепту в развитие PiratBit!
    Комментировать посты могут только пользователи прошедшие не сложную регистрацию
    Показать сообщения:    

    Топор 2 через торрент
    Скачать бесплатно Топор 2
    Топор 2 скачать торрент
    Топор 2 смотреть онлайн
    Cкачать фильм Топор 2 бесплатно
    Топор 2 скачать торрент в хорошем качестве
    Топор 2 смотреть онлайн бесплатно в хорошем качестве


    Вы не можете начинать темы
    Вы не можете отвечать на сообщения
    Вы не можете редактировать свои сообщения
    Вы не можете удалять свои сообщения
    Вы не можете голосовать в опросах
    Вы не можете прикреплять файлы к сообщениям
    Вы можете скачивать файлы