>

7.4

iTunes

7.4

2 сезон

9.4

1 сезон

1

7.4

2 сезон

7.2

iTunes

6.0

MVO

13

6.1

iTunes

8.3

Пиратка

30

ULTIMATE

pack

9.9

Лицензия

ВАЖНО

ИГРА 18+

pack

7.3

RePack

MK11

7.7

RePack

jed

7.8

RePack

fifa19

8.5

RePack

RDR2

RePack

NEED FOR SPEED™ PAYBACK

1 сезон

9 сезон

Бесстыжие 9 сезон

Все сериалы

все сериалы на PB.wtf

RePack

FAR CRY 5

Anonymous, доброе утро, мы катастрофически не успеваем собрать деньги на оплату серверов, помогите нам пожалуйста 5,10,15р., для нас важна любая помощь . В качестве благодарности мы отключим Вам всю рекламу на сайте (укажите свой ник в строку Ваше имя)!

×
  
Magnet ссылка

Топор 3 / Hatchet III (Б.Дж. МакДоннел) [2013, ужасы, боевик, триллер, BDRip 1080p by msltel] AVO pb.wtf

Топор 3 через торрент pb.wtf

Размер: 9.38 GB | Добавлен: 4 года 7 мес. назад | Торрент скачан:6 раз
Смотреть онлайн Топор 3 | Скачать    Ребята, помогите собрать деньги на оплату серверов!!!

23-05-2017 12:19 Топор 3 Скачать торрент  

Название: Топор 3
Оригинальное название: Hatchet III
Год выпуска: 2013
Страна: США
Жанр: ужасы, боевик, триллер
Продолжительность: 01:21:23
Перевод: авторский

Режиссёр: Б.Дж. МакДоннел

В ролях: Даниэль Харрис, Кэйн Ходдер, Зэк Гэллиган, Кэролин Уильямс, Дерек Мирс, Коуди Блу Снайдер, Райли Вандербилт, Роберт Дьяго Дукуй, Шон Уэйлен, Джейсон Трост

Описание: Фильм является прямым продолжением двух первых фильмов, выпущенных в 2006-м и в 2010-м годах. Ещё совсем недавно Мэрибэт была уверена, что своими руками уничтожила маньяка Виктора Кроули, зверски растерзавшего её друзей, опрометчиво отправившихся на ночную экскурсию по болотам Новой Луизианы. Но Кроули не умер. Он вернулся и снова начал убивать всех, кто приближается к болотам. Мэрибэт узнаёт, что маньяк не может умереть, так как он проклят. Девушка снова возвращается на смертельно опасные болота, на этот раз владея тайной, как снять проклятье с Кроули, а следовательно, и лишить его бессмертия...



Качество: BDRip 1080p
Формат: MKV
Видео: MPEG-4 AVC, 13.5 Mбит/с, 1920x800
Аудио 1: русский, DTS, 1509 kbps, 6 ch [авторский, Андрей Дольский, с ненормативной лексикой]
Аудио 2: английский, DTS, 1509 kbps, 6 ch, 48 kHz [оригинал]
Субтитры: английские
Имеются неименованные главы/чаптеры.
Общее
Уникальный идентификатор : 196864565133106493411299320570158329209 (0x941ABC70E8D47182BECDF8FCEBED2D79)
Полное имя : D:\Video\Топор 3.2013.BDRip.1080p by msltel.mkv
Формат : Matroska
Версия формата : Version 4 / Version 2
Размер файла : 9,38 Гбайт
Продолжительность : 1 ч. 21 м.
Общий поток : 16,5 Мбит/сек
Название фильма : Rip by msltel
Дата кодирования : UTC 2017-05-23 07:44:30
Программа кодирования : mkvmerge v8.2.0 ('World of Adventure') 64bit
Библиотека кодирования : libebml v1.3.1 + libmatroska v1.4.2

Видео
Идентификатор : 1
Формат : AVC
Формат/Информация : Advanced Video Codec
Профиль формата : High@L4.1
Параметр CABAC формата : Да
Параметр ReFrames формата : 4 кадра
Идентификатор кодека : V_MPEG4/ISO/AVC
Продолжительность : 1 ч. 21 м.
Битрейт : 13,5 Мбит/сек
Ширина : 1920 пикселей
Высота : 800 пикселей
Соотношение сторон : 2,40:1
Режим частоты кадров : Постоянный
Частота кадров : 23,976 (24000/1001) кадра/сек
Цветовое пространство : YUV
Субдискретизация насыщенности : 4:2:0
Битовая глубина : 8 бит
Тип развёртки : Прогрессивная
Бит/(Пиксели*Кадры) : 0.366
Размер потока : 7,66 Гбайт (82%)
Библиотека кодирования : x264 core 146 r2538 121396c
Настройки программы : cabac=1 / ref=4 / deblock=1:-3:-2 / analyse=0x3:0x113 / me=umh / subme=11 / psy=1 / psy_rd=1.00:0.15 / mixed_ref=1 / me_range=32 / chroma_me=1 / trellis=2 / 8x8dct=1 / cqm=0 / deadzone=21,11 / fast_pskip=0 / chroma_qp_offset=-3 / threads=6 / lookahead_threads=1 / sliced_threads=0 / nr=0 / decimate=1 / interlaced=0 / bluray_compat=0 / constrained_intra=0 / bframes=10 / b_pyramid=2 / b_adapt=2 / b_bias=0 / direct=1 / weightb=1 / open_gop=0 / weightp=2 / keyint=230 / keyint_min=23 / scenecut=40 / intra_refresh=0 / rc_lookahead=40 / rc=crf / mbtree=0 / crf=21.0 / qcomp=0.60 / qpmin=0 / qpmax=69 / qpstep=4 / vbv_maxrate=62500 / vbv_bufsize=78125 / crf_max=0.0 / nal_hrd=none / filler=0 / ip_ratio=1.40 / pb_ratio=1.30 / aq=1:1.00
Язык : English
Default : Да
Forced : Нет

Аудио #1
Идентификатор : 2
Формат : DTS
Формат/Информация : Digital Theater Systems
Режим : 16
Параметр Endianness формата : Big
Идентификатор кодека : A_DTS
Продолжительность : 1 ч. 21 м.
Вид битрейта : Постоянный
Битрейт : 1509 Кбит/сек
Каналы : 6 каналов
Расположение каналов : Front: L C R, Side: L R, LFE
Частота : 48,0 КГц
Частота кадров : 93,750 кадра/сек (512 spf)
Битовая глубина : 16 бит
Метод сжатия : С потерями
Размер потока : 879 Мбайт (9%)
Заголовок : AVO (Андрей Дольский, с ненормативной лексикой))
Язык : Russian
Default : Нет
Forced : Нет

Аудио #2
Идентификатор : 3
Формат : DTS
Формат/Информация : Digital Theater Systems
Режим : 16
Параметр Endianness формата : Big
Идентификатор кодека : A_DTS
Продолжительность : 1 ч. 21 м.
Вид битрейта : Постоянный
Битрейт : 1509 Кбит/сек
Каналы : 6 каналов
Расположение каналов : Front: L C R, Side: L R, LFE
Частота : 48,0 КГц
Частота кадров : 93,750 кадра/сек (512 spf)
Битовая глубина : 24 бит
Метод сжатия : С потерями
Размер потока : 879 Мбайт (9%)
Заголовок : original
Язык : English
Default : Нет
Forced : Нет

Текст
Идентификатор : 4
Формат : UTF-8
Идентификатор кодека : S_TEXT/UTF8
Идентификатор кодека/Информация : UTF-8 Plain Text
Продолжительность : 1 ч. 17 м.
Битрейт : 71 бит/сек
ElementCount : 1553
Размер потока : 40,3 Кбайт (0%)
Заголовок : английские (для слабослышащих)
Язык : English
Default : Нет
Forced : Нет

Меню
00:00:00.000 : :Chapter 01
00:06:19.419 : :Chapter 02
00:12:31.208 : :Chapter 03
00:17:11.739 : :Chapter 04
00:20:56.964 : :Chapter 05
00:24:33.597 : :Chapter 06
00:29:19.883 : :Chapter 07
00:36:17.592 : :Chapter 08
00:42:27.335 : :Chapter 09
00:46:48.472 : :Chapter 10
00:51:58.489 : :Chapter 11
00:56:30.136 : :Chapter 12
01:02:28.453 : :Chapter 13
01:06:30.361 : :Chapter 14
01:10:01.238 : :Chapter 15
01:13:56.140 : :Chapter 16
01:17:22.095 : :Chapter 17
01:21:23.628 : :Chapter 18
pb.wtf



Скачать Топор 3 через торрент http://s019.radikal.ru/i632/1705/80/f9ac461f4b34.jpg Скачать, смотреть онлайн Топор 3 бесплантно в хорошем качестве Описание: Фильм является прямым продолжением двух первых фильмов, выпущенных в 2006-м и в 2010-м годах. Ещё совсем недавно Мэрибэт была ... 10 10 1
Info! Золотая раздача, скачанное не засчитывается.
Торрент: Зарегистрирован [2017-05-23 12:19] · скачан: 6 раз
Статус: √ проверено
Размер: 9.38 GB
Как cкачать? Как скачать Топор 3 через торрент | UTorrent

% Раздел Тема Автор DL S | L
Фильмы с авторской озвучкой [ 3.31 GB ] Топор 3 / Hatchet III [2013 BDRip 720p by msltel] AVO msltel Скачать
1 | 0
Фильмы с авторской озвучкой [ 1.37 GB ] Топор 3 / Hatchet III [ 2013 HDRip ] AVO [А. Дольский] Ворон Скачать
1 | 0

28-11-2019 20:33  

Отключить всю рекламу на сайте

    Дорогой пользователь! Огромная просьба, поблагодарите релизера, оцените раздачу и оставьте свои комментарий, если Вы скачали Топор 3 через торрент бесплатно!
    Комментировать посты могут только пользователи прошедшие не сложную регистрацию
    Показать сообщения:    

    Топор 3 через торрент
    Скачать бесплатно Топор 3
    Топор 3 скачать торрент
    Топор 3 смотреть онлайн
    Cкачать фильм Топор 3 бесплатно
    Топор 3 скачать торрент в хорошем качестве
    Топор 3 смотреть онлайн бесплатно в хорошем качестве


    Вы не можете начинать темы
    Вы не можете отвечать на сообщения
    Вы не можете редактировать свои сообщения
    Вы не можете удалять свои сообщения
    Вы не можете голосовать в опросах
    Вы не можете прикреплять файлы к сообщениям
    Вы можете скачивать файлы