Ссылка на приватное зеркало нашего сайта всего за 1$. Внимание количество ограничено!!!

2 сезон

iTunes

1 сезон

1

iTunes

iTunes

iTunes

1 сезон

RePack

30

ИГРА 18+

pack

ВАЖНО

!!Акция!!

Alien_RageХит недели

RePack

MK11
pack

Забери бонус

RePack

jed

!!Акция!!

Alien_Rage

RePack

fifa19

RePack

Assassins Creed: Odyssey

RePack

NEED FOR SPEED™ PAYBACK

4 сезон

9 сезон

Бесстыжие 9 сезон

Все сериалы

все сериалы на PB.wtf

RePack

FAR CRY 5
  

Пропавший без вести. Второе дыхание / Сезон 2 / Серия 1-12 из 12 (Артём Мазунов) [2017 г., Детектив, криминал, SATRip] pb.wtf

Пропавший без вести. Второе дыхание через торрент pb.wtf

Размер: 7.83 GB | Добавлен: 3 года 5 мес. назад | Торрент скачан:87 раз
Скачать  

23-05-2017 13:51 Пропавший без вести. Второе дыхание Скачать торрент  

Пропавший без вести. Второе дыхание / Сезон 2 / Серия1-12 из 12
Год выпуска: 2017
Страна: Россия
Жанр: Детектив, криминал
Продолжительность: 12 Х-00:47:45
Субтитры: нет

Режиссер: Артём Мазунов

В ролях: Алексей Комашко, Валерия Ланская, Валерия Шкирандо, Вадим Рябинин, Антон Шурцов, Александр Армер, Арсений Лейн

Описание: В центре истории оперативник Александр Букреев (Алексей Комашко), который приходит в себя после комы, ведь за 18 лет жизнь кардинально изменилась. Герой мечтает вернуться в полицию, но пока из-за ограничений врачей сделать этого не может. Букреев, не желая с этим мириться, ищет возможные пути для возврата к оперативной работе. Он начинает помогать в расследованиях своему другу, бывшему стажёру, а ныне майору полиции Анатолию Зубко (Вадим Рябинин). Отдав практически ведение всех дел в руки Александра, Зубко готовит почву для возвращения друга в отдел. Помимо работы Букрееву приходится разбираться и с личной жизнью. После гибели невесты, его мечтает вернуть бывшая возлюбленная Маша Тихонова (Валерия Ланская), которая семнадцать лет назад родила ему сына.

Качество: SATRip
Формат: AVI
Видео кодек: XviD
Аудио кодек: MP3
Видео: 720x400 (1.80:1), 25 fps, XviD build 50 ~1800 kbps
Аудио#1: 48 kHz, MPEG Layer 3, 2 ch, ~128.00 kbps



General
Complete name : H:\релизы.торрентфайл\Пропавший 2(2017)\Propavshij.bez.vesti.Vtoroe.dyhanie.02.SATRip.[www.riperam.org].avi
Format : AVI
Format/Info : Audio Video Interleave
File size : 660 MiB
Duration : 47mn 36s
Overall bit rate : 1 938 Kbps
Writing application : VirtualDubMod 1.5.10.3 | www.virtualdub-fr.org || (build 2550/release)
Writing library : VirtualDubMod build 2550/release

Video
ID : 0
Format : MPEG-4 Visual
Format profile : Advanced Simple@L5
Format settings, BVOP : 2
Format settings, QPel : No
Format settings, GMC : No warppoints
Format settings, Matrix : Default (H.263)
Codec ID : XVID
Codec ID/Hint : XviD
Duration : 47mn 36s
Bit rate : 1 800 Kbps
Width : 720 pixels
Height : 400 pixels
Display aspect ratio : 16:9
Frame rate : 25.000 fps
Color space : YUV
Chroma subsampling : 4:2:0
Bit depth : 8 bits
Scan type : Progressive
Compression mode : Lossy
Bits/(Pixel*Frame) : 0.250
Stream size : 613 MiB (93%)
Writing library : XviD 1.2.1 (UTC 2008-12-04)

Audio
ID : 1
Format : MPEG Audio
Format version : Version 1
Format profile : Layer 3
Mode : Joint stereo
Mode extension : MS Stereo
Codec ID : 55
Codec ID/Hint : MP3
Duration : 47mn 36s
Bit rate mode : Constant
Bit rate : 128 Kbps
Channel(s) : 2 channels
Sampling rate : 48.0 KHz
Compression mode : Lossy
Stream size : 43.6 MiB (7%)
Alignment : Aligned on interleaves
Interleave, duration : 40 ms (1.00 video frame)
Interleave, preload duration : 504 ms
Writing library : LAME3.99r
Encoding settings : -m j -V 4 -q 9 -lowpass 17 -b 128

Внимание! Раздача ведётся путём добавления новых серий; при каждом добавлении создётся новый торрент. Чтобы начать докачку новой серии, пользователям необходимо сделать следующее:
  • Остановить скачивание,
  • Удалить старый торрент у себя из клиента (старые серии удалять не надо),
  • Скачать новый торрент и запустить его у себя в клиенте вместо старого, при этом указать клиенту путь в старую папку куда и должно происходить скачивание новых серий.
Ваш клиент при этом должен произвести хеширование (проверку) старой папки (если не производит сам - помогите ему сделать это), и будет докачивать только те серии которых у вас ещё нет. Старые серии при этом не удаляются, а продолжают раздаваться!

Eсли вы уже удалили старые серии, то предотвратить повторную закачку старых серий можно, отжав галочку в соответсвующих местах при запуске нового торрента. По возможности, желательно не удалять старые серии как можно дольше чтобы релизёр не столько продолжал раздавать старые серии, а смог сконцентрироваться на новых.
pb.wtf



Скачать Пропавший без вести. Второе дыхание через торрент http://i93.fastpic.ru/big/2017/0523/a3/0b6dd02680ba2d58dc276570b80eaca3.jpg Скачать фильм Пропавший без вести. Второе дыхание через торрент бесплантно в хорошем качестве Описание: В центре истории оперативник Александр Букреев (Алексей Комашко), который приходит в себя после комы, ведь за 18 лет жизнь ... 10 10 7
Info! Серебряная раздача, засчитывается только 50% скачанного.
Торрент: Зарегистрирован [2017-05-26 16:29] · скачан: 87 раз
Статус: √ проверено
Размер: 7.83 GB
Как cкачать? Как скачать Пропавший без вести. Второе дыхание через торрент | qTorrent

% Раздел Тема Автор DL S | L
Наши сериалы [ 7.03 GB ] Пропавший без вести. Второе дыхание / 2 сезон / 1-12 серии из 12 [2017 HDTVRip] bober100 Скачать
1 | 0


Последний раз редактировалось: oleg8 (2017-05-26 16:29), всего редактировалось 2 раз(а)

28-11-2019 20:33  

Отключить всю рекламу на сайте

24-05-2017 13:57 Пропавший без вести. Второе дыхание Скачать торрент  

добавил 5-6 серии.pb.wtf



25-05-2017 14:06 Пропавший без вести. Второе дыхание Скачать торрент  

добавил 7-8 серии.pb.wtf



26-05-2017 16:30 Пропавший без вести. Второе дыхание Скачать торрент  

добавил 9-12 серии.Сериал завершен.pb.wtf



    Дорогой пользователь! Огромная просьба, поблагодарите релизера, оцените раздачу и оставьте свои комментарий, если Вы скачали Пропавший без вести. Второе дыхание через торрент бесплатно! Внесите свою лепту в развитие PiratBit!
    Комментировать посты могут только пользователи прошедшие не сложную регистрацию
    Показать сообщения:    

    Пропавший без вести. Второе дыхание через торрент
    Скачать бесплатно Пропавший без вести. Второе дыхание
    Пропавший без вести. Второе дыхание скачать торрент
    Пропавший без вести. Второе дыхание смотреть онлайн
    Cкачать фильм Пропавший без вести. Второе дыхание бесплатно
    Пропавший без вести. Второе дыхание скачать торрент в хорошем качестве
    Пропавший без вести. Второе дыхание смотреть онлайн бесплатно в хорошем качестве


    Вы не можете начинать темы
    Вы не можете отвечать на сообщения
    Вы не можете редактировать свои сообщения
    Вы не можете удалять свои сообщения
    Вы не можете голосовать в опросах
    Вы не можете прикреплять файлы к сообщениям
    Вы можете скачивать файлы