2 сезон

iTunes

MVO

1

2 сезон

iTunes

iTunes

1 сезон

RePack

30

Новинка

ВАЖНО

ИГРА 18+

pack

RePack

MK11
pack

Легкие деньги

RePack

jed

RePack

fifa19

RePack

RDR2

RePack

NEED FOR SPEED™ PAYBACK

4 сезон

9 сезон

Бесстыжие 9 сезон

Все сериалы

все сериалы на PB.wtf

RePack

FAR CRY 5

Anonymous, доброй ночи, мы не успеваем собрать деньги на оплату серверов за декабрь и январь, помогите нам пожалуйста в это трудное время. В качестве благодарности мы отключим Вам всю рекламу на сайте (укажите свой ник в строку Ваше имя)!

×
  
Magnet ссылка

Великая стена в 3D / The Great Wall in 3D (Чжан Имоу) [2016 г., Фэнтези, Боевик, Триллер, Приключения, BDRip 1080p, Дубляж Лицензия] Анаглиф (Дюбуа) pb.wtf

Великая стена в 3D через торрент pb.wtf

Размер: 6.48 GB | Добавлен: 3 года 8 мес. назад | Торрент скачан:118 раз
Скачать  

23-05-2017 14:22 Великая стена в 3D Скачать торрент  

Великая стена в 3D / The Great Wall in 3D
Год выпуска: 2016
Страна: США, Китай, Гонконг, Австралия, Канада
Жанр: Фэнтези, Боевик, Триллер, Приключения
Продолжительность: 01:43:03
Перевод: Дубляж Лицензия
Субтитры: Русские, английские

Режиссер: Чжан Имоу

Бюджет: $150 000 000
Премьера в мире: 6 декабря 2016 (16 февраля 2017)

В ролях: Мэтт Дэймон, Цзин Тянь, Уиллем Дефо, Энди Лау, Педро Паскаль, Чжан Ханьюй, Лухан, Кенни Линь, Эдди Пэн, Хуан Сюань

Описание: Великую стену воздвигли, чтобы оградить Поднебесную от любых угроз, но с таким врагом не сталкивались даже самые отважные ее защитники. Если вторжение не остановить — мир будет уничтожен.

Доп. информация: Формат 3D: Анаглиф (Дюбуа)



Качество: BDRip 1080p
Формат: MKV
Видео кодек: H.264
Аудио кодек: AC3
Видео: AVC, 1920x1080 (16:9), 7726 kbps, 23,976 fps, 0.155 bpp
Аудио#1: Русский / AC3 / 48 KHz / 5.1 ch / 640 Kbps (Дубляж + VO (на китайскую речь) - BD 3D CEE)
Аудио#2: Английский / AC3 / 48 KHz / 5.1 ch / 640 Kbps (Original - BD 3D CEE)



скриншот   скриншот   скриншот   скриншот   скриншот  
x264 [info]: frame I:1403 Avg QP:10.30 size:191818
x264 [info]: frame P:38780 Avg QP:14.50 size: 72968
x264 [info]: frame B:108071 Avg QP:16.54 size: 26582
x264 [info]: consecutive B-frames: 3.2% 3.4% 12.6% 36.1% 44.6%


Общее
Уникальный идентификатор : 173034434054952320186137790156043257152 (0x822D38448725EEBD98508A14C7290540)
Полное имя : E:\TheGreatWall(2016)3D(Anaglyph_Dubois).mkv
Формат : Matroska
Версия формата : Version 4 / Version 2
Размер файла : 6,48 Гбайт
Продолжительность : 1 ч. 43 м.
Общий поток : 9008 Кбит/сек
Название фильма : Великая стена / The Great Wall (2016) в 3Д (Anaglyph_Dubois)
Дата кодирования : UTC 2017-05-21 17:15:09
Программа кодирования : mkvmerge v9.1.0 ('Little Earthquakes') 64bit
Библиотека кодирования : libebml v1.3.3 + libmatroska v1.4.4

Видео
Идентификатор : 1
Формат : AVC
Формат/Информация : Advanced Video Codec
Профиль формата : High@L4.1
MultiView_Count : 2
MultiView_Layout : Anaglyph (cyan/red)
Параметр CABAC формата : Да
Параметр ReFrames формата : 4 кадра
Идентификатор кодека : V_MPEG4/ISO/AVC
Продолжительность : 1 ч. 43 м.
Битрейт : 7726 Кбит/сек
Ширина : 1920 пикселей
Высота : 1080 пикселей
Соотношение сторон : 16:9
Режим частоты кадров : Постоянный
Частота кадров : 23,976 кадра/сек
Цветовое пространство : YUV
Субдискретизация насыщенности : 4:2:0
Битовая глубина : 8 бит
Тип развёртки : Прогрессивная
Бит/(Пиксели*Кадры) : 0.155
Размер потока : 5,56 Гбайт (86%)
Заголовок : slaventi-69 ( R.G. HD-Films ) 3Д (Anaglyph_Dubois)
Библиотека кодирования : x264 core 146 r2538 121396c
Настройки программы : cabac=1 / ref=4 / deblock=1:-1:-1 / analyse=0x3:0x113 / me=umh / subme=9 / psy=1 / psy_rd=1.00:0.00 / mixed_ref=1 / me_range=24 / chroma_me=1 / trellis=2 / 8x8dct=1 / cqm=0 / deadzone=21,11 / fast_pskip=1 / chroma_qp_offset=-2 / threads=8 / lookahead_threads=1 / sliced_threads=0 / nr=0 / decimate=1 / interlaced=0 / bluray_compat=0 / constrained_intra=0 / bframes=4 / b_pyramid=2 / b_adapt=2 / b_bias=0 / direct=1 / weightb=1 / open_gop=0 / weightp=2 / keyint=250 / keyint_min=23 / scenecut=40 / intra_refresh=0 / rc_lookahead=50 / rc=crf / mbtree=1 / crf=17.0 / qcomp=0.60 / qpmin=0 / qpmax=69 / qpstep=4 / vbv_maxrate=14000 / vbv_bufsize=14000 / crf_max=0.0 / nal_hrd=none / filler=0 / ip_ratio=1.40 / aq=1:1.00
Язык : English
Default : Да
Forced : Нет

Аудио #1
Идентификатор : 2
Формат : AC-3
Формат/Информация : Audio Coding 3
Расширение режима : CM (complete main)
Параметр Endianness формата : Big
Идентификатор кодека : A_AC3
Продолжительность : 1 ч. 43 м.
Вид битрейта : Постоянный
Битрейт : 640 Кбит/сек
Каналы : 6 каналов
Расположение каналов : Front: L C R, Side: L R, LFE
Частота : 48,0 КГц
Частота кадров : 31,250 кадров/сек (1536 spf)
Метод сжатия : С потерями
Размер потока : 472 Мбайт (7%)
Заголовок : Дубляж (на китайскую речь - VO) - BD 3D CEE
Язык : Russian
Default : Да
Forced : Нет

Аудио #2
Идентификатор : 3
Формат : AC-3
Формат/Информация : Audio Coding 3
Расширение режима : CM (complete main)
Параметр Endianness формата : Big
Идентификатор кодека : A_AC3
Продолжительность : 1 ч. 43 м.
Вид битрейта : Постоянный
Битрейт : 640 Кбит/сек
Каналы : 6 каналов
Расположение каналов : Front: L C R, Side: L R, LFE
Частота : 48,0 КГц
Частота кадров : 31,250 кадров/сек (1536 spf)
Метод сжатия : С потерями
Размер потока : 472 Мбайт (7%)
Заголовок : Original - BD 3D CEE
Язык : English
Default : Нет
Forced : Нет

Текст #1
Идентификатор : 4
Формат : UTF-8
Идентификатор кодека : S_TEXT/UTF8
Идентификатор кодека/Информация : UTF-8 Plain Text
Продолжительность : 1 ч. 42 м.
Битрейт : 1 бит/сек
Count of elements : 23
Размер потока : 801 байт (0%)
Заголовок : Форсированные (BD 3D CEE)
Язык : Russian
Default : Да
Forced : Нет

Текст #2
Идентификатор : 5
Формат : UTF-8
Идентификатор кодека : S_TEXT/UTF8
Идентификатор кодека/Информация : UTF-8 Plain Text
Продолжительность : 1 ч. 30 м.
Битрейт : 51 бит/сек
Count of elements : 829
Размер потока : 34,0 Кбайт (0%)
Заголовок : Полные
Язык : Russian
Default : Нет
Forced : Нет

Текст #3
Идентификатор : 6
Формат : UTF-8
Идентификатор кодека : S_TEXT/UTF8
Идентификатор кодека/Информация : UTF-8 Plain Text
Продолжительность : 1 ч. 42 м.
Битрейт : 7 бит/сек
Count of elements : 249
Размер потока : 5,65 Кбайт (0%)
Заголовок : Forced [+ chinese speeches] (BD 3D CEE)
Язык : English
Default : Нет
Forced : Нет

Текст #4
Идентификатор : 7
Формат : UTF-8
Идентификатор кодека : S_TEXT/UTF8
Идентификатор кодека/Информация : UTF-8 Plain Text
Продолжительность : 1 ч. 42 м.
Битрейт : 27 бит/сек
Count of elements : 837
Размер потока : 20,9 Кбайт (0%)
Заголовок : Full [including chinese speeches] (BD 3D CEE)
Язык : English
Default : Нет
Forced : Нет

Текст #5
Идентификатор : 8
Формат : UTF-8
Идентификатор кодека : S_TEXT/UTF8
Идентификатор кодека/Информация : UTF-8 Plain Text
Продолжительность : 1 ч. 42 м.
Битрейт : 36 бит/сек
Count of elements : 1102
Размер потока : 27,3 Кбайт (0%)
Заголовок : SDH [including chinese speeches] (BD 3D CEE)
Язык : English
Default : Нет
Forced : Нет

Меню
00:00:00.000 : :1
00:05:58.358 : :2
00:11:47.540 : :3
00:16:53.679 : :4
00:20:13.254 : :5
00:25:11.009 : :6
00:28:55.317 : :7
00:33:57.744 : :8
00:37:54.147 : :9
00:42:42.935 : :10
00:46:18.943 : :11
00:50:27.691 : :12
00:56:46.069 : :13
01:01:58.048 : :14
01:07:12.820 : :15
01:12:08.533 : :16
01:18:20.863 : :17
01:23:25.083 : :18
01:27:26.158 : :19
01:31:14.386 : :20

pb.wtf



Скачать Великая стена в 3D через торрент http://i91.fastpic.ru/big/2017/0514/f2/f0ec253bc29216e120d65cf90c9551f2.png Скачать фильм Великая стена в 3D через торрент бесплантно в хорошем качестве Описание: Великую стену воздвигли, чтобы оградить Поднебесную от любых угроз, но с таким врагом не сталкивались даже самые отважные ее ... 10 10 4
Торрент: Зарегистрирован [2017-05-23 14:22] · скачан: 118 раз
Статус: √ проверено
Размер: 6.48 GB
Как cкачать? Как скачать Великая стена в 3D через торрент | UTorrent

28-11-2019 20:33  

Отключить всю рекламу на сайте

23-05-2017 14:35 Великая стена в 3D Скачать торрент  

Где же 3 икса в 3D?pb.wtf



23-05-2017 14:43 Великая стена в 3D Скачать торрент  

zra писал(а):

Где же 3 икса в 3D?

BD 3D - 29.05.2017 (UK) (ждём)pb.wtf



    Дорогой пользователь! Огромная просьба, поблагодарите релизера, оцените раздачу и оставьте свои комментарий, если Вы скачали Великая стена в 3D через торрент бесплатно! Внесите свою лепту в развитие PiratBit!
    Комментировать посты могут только пользователи прошедшие не сложную регистрацию
    Показать сообщения:    

    Великая стена в 3D через торрент
    Скачать бесплатно Великая стена в 3D
    Великая стена в 3D скачать торрент
    Великая стена в 3D смотреть онлайн
    Cкачать фильм Великая стена в 3D бесплатно
    Великая стена в 3D скачать торрент в хорошем качестве
    Великая стена в 3D смотреть онлайн бесплатно в хорошем качестве


    Вы не можете начинать темы
    Вы не можете отвечать на сообщения
    Вы не можете редактировать свои сообщения
    Вы не можете удалять свои сообщения
    Вы не можете голосовать в опросах
    Вы не можете прикреплять файлы к сообщениям
    Вы можете скачивать файлы