Ссылка на приватное зеркало нашего сайта всего за 1$. Внимание количество ограничено!!!

2 сезон

iTunes

1 сезон

1

2 сезон

2 сезон

iTunes

1 сезон

RePack

30

Ultimate

ВАЖНО

ИГРА 18+

pack

RePack

MK11
pack

Забери бонус

RePack

jed

!!Акция!!

Alien_Rage

RePack

fifa19

RePack

Assassins Creed: Odyssey

RePack

NEED FOR SPEED™ PAYBACK

4 сезон

9 сезон

Бесстыжие 9 сезон

Все сериалы

все сериалы на PB.wtf

RePack

FAR CRY 5
  

Твин Пикс / Twin Peaks / Сезон 3 / Серии 1-18 из 18 (Мэтт Шекман, Скотт Уинант) [2017, драма, криминал, детектив, WEBRip] MVO [LostFilm] pb.wtf

Твин Пикс через торрент pb.wtf

Размер: 11.06 GB | Добавлен: 3 года 2 мес. назад | Торрент скачан:194 раза
Скачать  

24-05-2017 03:52 Твин Пикс Скачать торрент  

Твин Пикс / Twin Peaks[Год выпуска: 2017
Страна: США
Жанр: драма, криминал, детектив
Всего серий: 18
Продолжительность: 18 х ~ 01:00:00
Перевод: Профессиональный многоголосый -
Субтитры: отсутствуют

Режиссер: Мэтт Шекман, Скотт Уинант, Адам Бернштейн

rating

В ролях:

Медкен Эмик, Дэна Эшбрук, Шерил Ли, Кайл МакЛоклен, Эверет МакГилл, Кимми Робертсон, Расс Тэмблин, Рэй Уайз, Грейс Забриски, Эми Шилз

Описание:

25 лет назад жители маленького городка Твин Пикс были ошеломлены загадочным убийством королевы школы Лоры Палмер. Но история еще не закончена, события давно минувших дней дают о себе знать..

Качество: WEBRip
Формат: AVI
Видео кодек: XviD
Аудио кодек: AC3

Видео: 720x400 (1.80:1), 23.976 fps, XviD build 73 ~1800 kbps avg, 0.26 bit/pixel
Аудио#1: 48 kHz, MPEG Layer 3, 2 ch, ~192.00 kbps avg (LostFilm)
скриншот   скриншот   скриншот   скриншот  

скриншот   скриншот   скриншот   скриншот  

Общее
Полное имя : D:\Twin Peaks (Season 03)\Twin.Peaks.S03E01.XviD.lostfilm.(qqss44).avi
Формат : AVI
Формат/Информация : Audio Video Interleave
Размер файла : 867 Мбайт
Продолжительность : 1 ч. 0 м.
Общий поток : 2001 Кбит/сек
Программа кодирования : VirtualDubMod 1.5.10.3 | www.virtualdub-fr.org || (build 2550/release)
Библиотека кодирования : VirtualDubMod build 2550/release

Видео
Идентификатор : 0
Формат : MPEG-4 Visual
Профиль формата : Advanced Simple@L5
Параметр BVOP формата : 2
Параметр QPel формата : Нет
Параметр GMC формата : Без точки перехода
Параметр матрицы формата : Выборочная
Идентификатор кодека : XVID
Идентификатор кодека/Подсказка : XviD
Продолжительность : 1 ч. 0 м.
Битрейт : 1800 Кбит/сек
Ширина : 720 пикселей
Высота : 400 пикселей
Соотношение сторон : 16:9
Частота кадров : 23,976 (23976/1000) кадра/сек
Цветовое пространство : YUV
Субдискретизация насыщенности : 4:2:0
Битовая глубина : 8 бит
Тип развёртки : Прогрессивная
Метод сжатия : С потерями
Бит/(Пиксели*Кадры) : 0.261
Размер потока : 780 Мбайт (90%)
Библиотека кодирования : XviD 73

Аудио
Идентификатор : 1
Формат : MPEG Audio
Версия формата : Version 1
Профиль формата : Layer 3
Режим : Joint stereo
Расширение режима : MS Stereo
Идентификатор кодека : 55
Идентификатор кодека/Подсказка : MP3
Продолжительность : 1 ч. 0 м.
Вид битрейта : Постоянный
Битрейт : 192 Кбит/сек
Каналы : 2 канала
Частота : 48,0 КГц
Метод сжатия : С потерями
Размер потока : 83,2 Мбайт (10%)
Выравнивание : Соединение по промежуткам
Продолжительность промежутка : 42 мс. (1,00 видеокадр)
Время предзагрузки промежутка : 504 мс.

Внимание! Раздача ведётся путём добавления новых серий; при каждом добавлении создаётся новый торрент. Чтобы начать докачку новой серии, пользователям необходимо сделать следующее:
(1) остановить скачивание,
(2) удалить старый торрент у себя из клиента (старые серии удалять не надо),
(3) скачать новый торрент и запустить его у себя в клиенте вместо старого, при этом указать клиенту путь в старую папку куда и должно происходить скачивание новых серий.

Ваш клиент при этом должен произвести хеширование (проверку) старой папки (если не производит сам - помогите ему сделать это), и будет докачивать только те серии которых у вас ещё нет. Старые серии при этом не удаляются, а продолжают раздаваться!

Eсли вы уже удалили старые серии, то предотвратить повторную закачку старых серий можно, отжав галочку в соответствующих местах при запуске нового торрента. По возможности, желательно не удалять старые серии как можно дольше, чтобы релизёр не столько продолжал раздавать старые серии, а смог сконцентрироваться на новых.
pb.wtf



Скачать Твин Пикс через торрент http://rudb.org/img/2017_05/24/ad16047f-e573-4f81-968b-aeaeffad7166.png Скачать фильм Твин Пикс через торрент бесплантно в хорошем качестве Описание: 25 лет назад жители маленького городка Твин Пикс были ошеломлены загадочным убийством королевы школы Лоры Палмер. Но история еще ... 9.4 10 20
Торрент: Зарегистрирован [2017-09-07 04:32] · скачан: 194 раз
Статус: √ проверено
Размер: 11.06 GB
Как cкачать? Как скачать Твин Пикс через торрент | qTorrent



Последний раз редактировалось: bober100 (2017-09-07 04:32), всего редактировалось 13 раз(а)

28-11-2019 20:33  

Отключить всю рекламу на сайте

24-05-2017 08:48 Твин Пикс Скачать торрент  

А в переводе ТВ-3 будет?pb.wtf



25-05-2017 12:19 Твин Пикс Скачать торрент  

Страна: Россия ?????pb.wtf



25-05-2017 20:39 Твин Пикс Скачать торрент  

3 сезон? Офигеть, через столько лет)))pb.wtf



26-05-2017 11:03 Твин Пикс Скачать торрент  

Sairoxx_1984 писал(а):

3 сезон? Офигеть, через столько лет)))

Лора же сказала Куперу,что через 25 лет встретимсяpb.wtf



26-05-2017 16:10 Твин Пикс Скачать торрент  

Крайне нудный сериал. Возможно, 25 лет назад-это был прорыв, но сегодня когда снимается масса качественных и высокобюджетных сериалов, он лишь один из многих, и при этом не самый увлекательный. Дэвид Линч постарел и устарел, здоровья ему долгих лет жизни..pb.wtf



28-07-2017 19:39 Твин Пикс Скачать торрент  

этот сезон вообще полная лажа.лучше бы его не снимали только опазорилисьpb.wtf



17-08-2017 10:42 Твин Пикс Скачать торрент  

че за хрень он снялpb.wtf



17-08-2017 11:22 Твин Пикс Скачать торрент  

pavel9999 писал(а):

че за хрень он снял

Он сам по ходу не понял)pb.wtf



24-08-2017 16:49 Твин Пикс Скачать торрент  

Отличный сезон, но смотреть лучше в Колдфильме, они с матами в нужных местах и как-то более эмоционально что ли... Никогда бы не подумал, что они смогут вырасти профессионально.pb.wtf



07-09-2017 06:22 Твин Пикс Скачать торрент  

Спасибо,посмотрим что за продолжение.pb.wtf



07-09-2017 07:23 Твин Пикс Скачать торрент  

COMMANDER, Не за чтоpb.wtf



07-09-2017 10:47 Твин Пикс Скачать торрент  

Наркоманский бредpb.wtf



    Дорогой пользователь! Огромная просьба, поблагодарите релизера, оцените раздачу и оставьте свои комментарий, если Вы скачали Твин Пикс через торрент бесплатно! Внесите свою лепту в развитие PiratBit!
    Комментировать посты могут только пользователи прошедшие не сложную регистрацию
    Показать сообщения:    

    Твин Пикс через торрент
    Скачать бесплатно Твин Пикс
    Твин Пикс скачать торрент
    Твин Пикс смотреть онлайн
    Cкачать фильм Твин Пикс бесплатно
    Твин Пикс скачать торрент в хорошем качестве
    Твин Пикс смотреть онлайн бесплатно в хорошем качестве


    Вы не можете начинать темы
    Вы не можете отвечать на сообщения
    Вы не можете редактировать свои сообщения
    Вы не можете удалять свои сообщения
    Вы не можете голосовать в опросах
    Вы не можете прикреплять файлы к сообщениям
    Вы можете скачивать файлы