Ссылка на приватное зеркало всего за 1$. Внимание количество ограничено!!!

iTunes

iTunes

iTunes

1

iTunes

iTunes

iTunes

iTunes

iTunes

30
pack

$ от Little Big

ВАЖНО

!!Акция!!

Alien_RageХит недели

RePack

Resident Evil 21

ИГРА 18+

pack

RePack

jed

!!Акция!!

Alien_Rage

RePack

fifa19

RePack

Assassins Creed: Odyssey

RePack

NEED FOR SPEED™ PAYBACK

4 сезон

9 сезон

Бесстыжие 9 сезон

Все сериалы

все сериалы на PB.wtf

RePack

FAR CRY 5
  

Нормальная жизнь / Normal Life (Джон МакНотон) [1996 г., драма, криминал, HDTVRip 720p] DVO + AVO pb.wtf

Нормальная жизнь через торрент pb.wtf

Размер: 4.4 GB | Добавлен: 3 года 1 мес. назад | Торрент скачан:14 раз
Скачать  

24-05-2017 08:44 Нормальная жизнь Скачать торрент  

Нормальная жизнь / Normal LifeГод выпуска: 1996
Страна: США
Жанр: драма, криминал
Продолжительность: 01:42:14
Перевод: любительский двухголосый (А.ПитерскиY & Лена Сибирь), авторский (Петр Карцев)
Субтитры: отсутствуют

Режиссер: Джон МакНотон
В ролях: Эшли Джадд, Люк Перри, Брюс А. Янг, Джим Тру-Фрост, Эдмунд Висон, Майкл Скевес, Скотт Камминс, Кевин Мухержи, Кейт Уолш, Том Таулз

rating

Описание: Впервые полицейский Крис увидел красотку Пэм в баре. Через несколько дней он был влюблен до безумия, хотя ее поведение могло показаться странным. Вскоре они поженились. Но счастливого брака не получилось. Пэм тратит все деньги и, как оказалось, на наркотики. Но Крис так любит жену, что готов ради нее пойти на преступление…

Доп. информация: ПРИСУТСТВУЕТ НЕНОРМАТИВНАЯ ЛЕКСИКА

Качество: HDTVRip 720p
Формат: MKV
Видео кодек: H.264
Аудио кодек: AC3
Видео: AVC, 1280x720 (16:9), 23.976 fps ~ 5275 Kbps
Аудио#1: 48 KHz 2 ch ~ 192 Kb/s (любительский)
Аудио#2: 48 KHz 2 ch ~ 192 Kb/s (авторский)
Аудио#3: 48 KHz 2 ch ~ 384 Kb/s (английский)
скриншот   скриншот   скриншот   скриншот   скриншот   скриншот   скриншот  

Общее
Уникальный идентификатор : 194821060832439907785072557251424028673 (0x92912BE678684F879CAE24E9AE860801)
Полное имя : Q:\TorF\Normal.Life.1996.720p.HDTV.AC3-HD.mkv
Формат : Matroska
Версия формата : Version 2
Размер файла : 4,40 Гбайт
Продолжительность : 1 ч. 42 м.
Общий поток : 6167 Кбит/сек
Дата кодирования : UTC 2017-05-21 07:06:58
Программа кодирования : mkvmerge v5.4.0 ('Piper') built on Mar 10 2012 13:34:39
Библиотека кодирования : libebml v1.2.3 + libmatroska v1.3.0

Видео
Идентификатор : 1
Формат : AVC
Формат/Информация : Advanced Video Codec
Профиль формата : High@L4.1
Параметр CABAC формата : Да
Параметр ReFrames формата : 5 кадров
Идентификатор кодека : V_MPEG4/ISO/AVC
Продолжительность : 1 ч. 42 м.
Битрейт : 5277 Кбит/сек
Ширина : 1280 пикселей
Высота : 720 пикселей
Соотношение сторон : 16:9
Частота кадров : 23,976 кадра/сек
Цветовое пространство : YUV
Субдискретизация насыщенности : 4:2:0
Битовая глубина : 8 бит
Тип развёртки : Прогрессивная
Бит/(Пиксели*Кадры) : 0.239
Размер потока : 3,77 Гбайт (86%)
Заголовок : Normal.Life.1996
Библиотека кодирования : x264 core 65 r1040M 1591275
Настройки программы : cabac=1 / ref=5 / deblock=1:-2:-2 / analyse=0x3:0x113 / me=umh / subme=8 / psy_rd=1.3:0.0 / mixed_ref=0 / me_range=16 / chroma_me=1 / trellis=2 / 8x8dct=1 / cqm=0 / deadzone=21,11 / chroma_qp_offset=-2 / threads=6 / nr=0 / decimate=0 / mbaff=0 / bframes=5 / b_pyramid=1 / b_adapt=2 / b_bias=0 / direct=3 / wpredb=1 / keyint=250 / keyint_min=25 / scenecut=40(pre) / rc=crf / crf=17.5 / qcomp=0.60 / qpmin=10 / qpmax=51 / qpstep=4 / ip_ratio=1.40 / pb_ratio=1.30 / aq=1:0.60
Язык : English
Default : Да
Forced : Нет

Аудио #1
Идентификатор : 2
Формат : AC-3
Формат/Информация : Audio Coding 3
Расширение режима : CM (complete main)
Идентификатор кодека : A_AC3
Продолжительность : 1 ч. 42 м.
Вид битрейта : Постоянный
Битрейт : 192 Кбит/сек
Каналы : 2 канала
Расположение каналов : Front: L R
Частота : 48,0 КГц
Битовая глубина : 16 бит
Метод сжатия : С потерями
Размер потока : 140 Мбайт (3%)
Заголовок : L2
Язык : Russian
Default : Да
Forced : Нет

Аудио #2
Идентификатор : 3
Формат : AC-3
Формат/Информация : Audio Coding 3
Расширение режима : CM (complete main)
Идентификатор кодека : A_AC3
Продолжительность : 1 ч. 42 м.
Вид битрейта : Постоянный
Битрейт : 192 Кбит/сек
Каналы : 2 канала
Расположение каналов : Front: L R
Частота : 48,0 КГц
Битовая глубина : 16 бит
Метод сжатия : С потерями
Размер потока : 140 Мбайт (3%)
Заголовок : Karcev
Язык : Russian
Default : Нет
Forced : Нет

Аудио #3
Идентификатор : 4
Формат : AC-3
Формат/Информация : Audio Coding 3
Расширение режима : CM (complete main)
Идентификатор кодека : A_AC3
Продолжительность : 1 ч. 42 м.
Вид битрейта : Постоянный
Битрейт : 384 Кбит/сек
Каналы : 2 канала
Расположение каналов : Front: L R
Частота : 48,0 КГц
Битовая глубина : 16 бит
Метод сжатия : С потерями
Размер потока : 281 Мбайт (6%)
Заголовок : Original AC3 2.0 384 kbps
Язык : English
Default : Нет
Forced : Нет

pb.wtf



Скачать Нормальная жизнь через торрент http://pic.kartinco.top/images/11/5b4e9.jpg Скачать фильм Нормальная жизнь через торрент бесплантно в хорошем качестве Описание: Впервые полицейский Крис увидел красотку Пэм в баре. Через несколько дней он был влюблен до безумия, хотя ее поведение могло ... 5 10 1
Info! Золотая раздача, скачанное не засчитывается.
Торрент: Зарегистрирован [2017-05-24 08:44] · скачан: 14 раз
Статус: √ проверено
Размер: 4.4 GB
Как cкачать? Как скачать Нормальная жизнь через торрент | qTorrent

28-11-2019 20:33  

Отключить всю рекламу на сайте

    Дорогой пользователь! Огромная просьба, поблагодарите релизера, оцените раздачу и оставьте свои комментарий, если Вы скачали Нормальная жизнь через торрент бесплатно! Внесите свою лепту в развитие PiratBit!
    Комментировать посты могут только пользователи прошедшие не сложную регистрацию
    Показать сообщения:    

    Нормальная жизнь через торрент
    Скачать бесплатно Нормальная жизнь
    Нормальная жизнь скачать торрент
    Нормальная жизнь смотреть онлайн
    Cкачать фильм Нормальная жизнь бесплатно
    Нормальная жизнь скачать торрент в хорошем качестве
    Нормальная жизнь смотреть онлайн бесплатно в хорошем качестве


    Вы не можете начинать темы
    Вы не можете отвечать на сообщения
    Вы не можете редактировать свои сообщения
    Вы не можете удалять свои сообщения
    Вы не можете голосовать в опросах
    Вы не можете прикреплять файлы к сообщениям
    Вы можете скачивать файлы