2 сезон

iTunes

1 сезон

1

iTunes

iTunes

iTunes

1 сезон

RePack

30

ИГРА 18+

pack

ВАЖНО

!!Акция!!

Alien_RageХит недели

RePack

MK11
pack

Забери бонус

RePack

jed

!!Акция!!

Alien_Rage

RePack

fifa19

RePack

Assassins Creed: Odyssey

RePack

NEED FOR SPEED™ PAYBACK

4 сезон

9 сезон

Бесстыжие 9 сезон

Все сериалы

все сериалы на PB.wtf

RePack

FAR CRY 5
  

Идеальные незнакомцы / Perfetti sconosciuti (Паоло Дженовезе) [2016, драма, комедия, BDRip 1080p] MVO [iTunes] pb.wtf

Идеальные незнакомцы через торрент pb.wtf

Раздают: 1 [ 0 KB/s ]
Размер: 9.32 GB | Добавлен: 3 года 3 мес. назад | Торрент скачан:522 раза
Скачать  

24-05-2017 14:51 Идеальные незнакомцы Скачать торрент  

Идеальные незнакомцы / Perfetti sconosciuti
««Скелеты в телефонах или что будет, если все прочтут твои смс вслух?»»

Год выпуска: 2016
Страна: Италия
Жанр: драма, комедия

Продолжительность: 01:36:03
Перевод: Профессиональный многоголосый [Лицензия / iTunes]
Субтитры: русские (Full), итальянские (Full), английские (Full)
Режиссер: Паоло Дженовезе
В ролях:

Джузеппе Баттистон (Peppe), Анна Фольетта (Carlotta), Марко Джаллини (Rocco), Эдоардо Лео (Cosimo), Валерио Мастандреа (Lele), Альба Рорвахер (Bianca), Касия Смутняк (Eva), Бенедетта Поркароли (Sofia), Элизабетта Де Пало (Nonna), Томмазо Татафьоре (Bruno), Ноеми Паготто (Rosa)
Описание:
Семеро закадычных друзей, собравшись за ужином, в шутку начинают игру - читать все смс вслух, а на звонки отвечать по громкой связи. Они и представить себе не могут, какие скелеты вылезут из их шкафов и какие удивительные открытия им предстоит сделать.
Рейтинг:

Качество: BDRip 1080p (ExKinoRay)
Формат: MKV
Видео: AVC, 1920x804 (2.40:1), 12000 kbps, 23,976 fps, 0,324 bpp
Аудио №1: русский / AC3 / 5.1 / 48 kHz / 384 kbps / |Дубляж, iTunes|
Аудио №2: итальянский / DTS / 5.1 / 48 kHz / 1509 kbps / 16 bit
Навигация по главам: есть

General
Unique ID : 183271125522370827647210997976933257138 (0x89E0BC1FAFED867B8F3FA6D8060ACFB2)
Complete name : E:\Perfetti.Sconosciuti.2016.BDRip.1080p.mkv
Format : Matroska
Format version : Version 4 / Version 2
File size : 9.32 GiB
Duration : 1 h 36 min
Overall bit rate : 13.9 Mb/s
Movie name : Идеальные незнакомцы / Perfetti sconosciuti (2016) BDRip 1080p
Encoded date : UTC 2017-05-24 13:29:19
Writing application : mkvmerge v12.0.0 ('Trust / Lust') 64bit
Writing library : libebml v1.3.4 + libmatroska v1.4.5
Cover : Yes
Attachments : cover.jpg

Video
ID : 1
Format : AVC
Format/Info : Advanced Video Codec
Format profile : High@L4.1
Format settings, CABAC : Yes
Format settings, ReFrames : 5 frames
Codec ID : V_MPEG4/ISO/AVC
Duration : 1 h 36 min
Bit rate : 12.0 Mb/s
Width : 1 920 pixels
Height : 804 pixels
Display aspect ratio : 2.40:1
Frame rate mode : Constant
Frame rate : 23.976 (24000/1001) FPS
Color space : YUV
Chroma subsampling : 4:2:0
Bit depth : 8 bits
Scan type : Progressive
Bits/(Pixel*Frame) : 0.324
Stream size : 8.05 GiB (86%)
Writing library : x264 core 148 r2744kMod b97ae06
Encoding settings : cabac=1 / ref=5 / deblock=1:-3:-3 / analyse=0x3:0x133 / me=umh / subme=11 / psy=1 / fade_compensate=0.00 / psy_rd=1.00:0.00 / mixed_ref=1 / me_range=48 / chroma_me=1 / trellis=2 / 8x8dct=1 / cqm=0 / deadzone=21,11 / fast_pskip=0 / chroma_qp_offset=-2 / threads=12 / lookahead_threads=3 / sliced_threads=0 / nr=0 / decimate=0 / interlaced=0 / bluray_compat=0 / constrained_intra=0 / bframes=12 / b_pyramid=2 / b_adapt=2 / b_bias=0 / direct=3 / weightb=1 / open_gop=0 / weightp=2 / keyint=240 / keyint_min=24 / scenecut=40 / intra_refresh=0 / rc=2pass / mbtree=0 / bitrate=12000 / ratetol=1.0 / qcomp=0.70 / qpmin=0 / qpmax=69 / qpstep=4 / cplxblur=20.0 / qblur=0.5 / ip_ratio=1.25 / pb_ratio=1.20 / aq=3:0.80
Language : English
Default : Yes
Forced : No

Audio #1
ID : 2
Format : AC-3
Format/Info : Audio Coding 3
Mode extension : CM (complete main)
Format settings, Endianness : Big
Codec ID : A_AC3
Duration : 1 h 36 min
Bit rate mode : Constant
Bit rate : 384 kb/s
Channel(s) : 6 channels
Channel positions : Front: L C R, Side: L R, LFE
Sampling rate : 48.0 kHz
Frame rate : 31.250 FPS (1536 spf)
Compression mode : Lossy
Stream size : 264 MiB (3%)
Title : MVO, AC3 5.1 ~384 kbps
Language : Russian
Default : Yes
Forced : No

Audio #2
ID : 3
Format : DTS
Format/Info : Digital Theater Systems
Mode : 16
Format settings, Endianness : Big
Codec ID : A_DTS
Duration : 1 h 36 min
Bit rate mode : Constant
Bit rate : 1 509 kb/s
Channel(s) : 6 channels
Channel positions : Front: L C R, Side: L R, LFE
Sampling rate : 48.0 kHz
Frame rate : 93.750 FPS (512 spf)
Bit depth : 16 bits
Compression mode : Lossy
Stream size : 1.01 GiB (11%)
Title : Original
Language : Italian
Default : No
Forced : No

Text #1
ID : 4
Format : UTF-8
Codec ID : S_TEXT/UTF8
Codec ID/Info : UTF-8 Plain Text
Duration : 1 h 29 min
Bit rate : 128 b/s
Count of elements : 1227
Stream size : 84.3 KiB (0%)
Title : Full
Language : Russian
Default : No
Forced : No

Text #2
ID : 5
Format : UTF-8
Codec ID : S_TEXT/UTF8
Codec ID/Info : UTF-8 Plain Text
Duration : 1 h 28 min
Bit rate : 78 b/s
Count of elements : 1293
Stream size : 51.0 KiB (0%)
Title : Full
Language : Italian
Default : No
Forced : No

Text #3
ID : 6
Format : UTF-8
Codec ID : S_TEXT/UTF8
Codec ID/Info : UTF-8 Plain Text
Duration : 1 h 29 min
Bit rate : 73 b/s
Count of elements : 1229
Stream size : 48.1 KiB (0%)
Title : Full
Language : English
Default : No
Forced : No

Menu
00:00:00.000 : en:00:00:00.000
00:07:14.059 : en:00:07:14.059
00:21:11.520 : en:00:21:11.520
00:30:28.702 : en:00:30:28.702
00:34:39.411 : en:00:34:39.411
00:41:30.405 : en:00:41:30.405
00:51:19.159 : en:00:51:19.159
01:04:23.109 : en:01:04:23.109
01:09:13.483 : en:01:09:13.483
01:14:42.687 : en:01:14:42.687
01:20:29.158 : en:01:20:29.158
01:27:11.476 : en:01:27:11.476
pb.wtf



Скачать Идеальные незнакомцы через торрент http://i6.imageban.ru/out/2017/05/24/d2628f98c68e7e881e6979180a55abb9.jpg Скачать фильм Идеальные незнакомцы через торрент бесплантно в хорошем качестве Описание: Семеро закадычных друзей, собравшись за ужином, в шутку начинают игру - читать все смс вслух, а на звонки отвечать по громкой ... 10 10 11
Info! Золотая раздача, скачанное не засчитывается.
Торрент: Зарегистрирован [2017-07-13 12:49] · скачан: 522 раз
Статус: √ проверено
Размер: 9.32 GB
Как cкачать? Как скачать Идеальные незнакомцы через торрент | qTorrent

% Раздел Тема Автор DL S | L
Фильмы 2016 [DVDrip, WEB-DLRip, HDrip] (DUB, MVO) [ 1.42 GB ] Идеальные незнакомцы / Perfetti sconosciuti [2016 BDRip] многоголосый -Lexx- Скачать
2 | 0
Фильмы 2016 [DVDrip, WEB-DLRip, HDrip] (DUB, MVO) [ 1.61 GB ] Идеальные незнакомцы / Perfetti sconosciuti [2016 BDRip-AVC] MVO - ExKinoRay Enigma2010 Скачать
2 | 0
Фильмы 2016 [DVDrip, WEB-DLRip, HDrip] (DUB, MVO) [ 1.47 GB ] Идеальные незнакомцы / Perfetti sconosciuti [2016 BDRip-AVC] MVO -Lexx- Скачать
1 | 0
Фильмы 2016 [DVDrip, WEB-DLRip, HDrip] (DUB, MVO) [ 1.42 GB ] Идеальные незнакомцы / Perfetti sconosciuti [2016 BDRip] многоголосый Twi7ter Скачать
1 | 0

28-11-2019 20:33  

Отключить всю рекламу на сайте

24-05-2017 15:03 Идеальные незнакомцы Скачать торрент  

На замену этой раздачи: Идеальные незнакомцы / Perfetti sconosciuti

По просьбе пользователя Skribl заменил русскую дорожку, добавил субтитры.

Для оценки качества звука рекомендую сначала скачивать сэмпл.

Приятного просмотра. pb.wtf



13-07-2017 13:33 Идеальные незнакомцы Скачать торрент  

Хороший фильм. Особенно для семейных людей!pb.wtf



    Дорогой пользователь! Огромная просьба, поблагодарите релизера, оцените раздачу и оставьте свои комментарий, если Вы скачали Идеальные незнакомцы через торрент бесплатно! Внесите свою лепту в развитие PiratBit!
    Комментировать посты могут только пользователи прошедшие не сложную регистрацию
    Показать сообщения:    

    Идеальные незнакомцы через торрент
    Скачать бесплатно Идеальные незнакомцы
    Идеальные незнакомцы скачать торрент
    Идеальные незнакомцы смотреть онлайн
    Cкачать фильм Идеальные незнакомцы бесплатно
    Идеальные незнакомцы скачать торрент в хорошем качестве
    Идеальные незнакомцы смотреть онлайн бесплатно в хорошем качестве


    Вы не можете начинать темы
    Вы не можете отвечать на сообщения
    Вы не можете редактировать свои сообщения
    Вы не можете удалять свои сообщения
    Вы не можете голосовать в опросах
    Вы не можете прикреплять файлы к сообщениям
    Вы можете скачивать файлы