Ссылка на приватное зеркало нашего сайта всего за 1$. Внимание количество ограничено!!!

2 сезон

iTunes

1 сезон

1

iTunes

iTunes

iTunes

1 сезон

RePack

30

ИГРА 18+

pack

ВАЖНО

!!Акция!!

Alien_RageХит недели

RePack

MK11
pack

Забери бонус

RePack

jed

!!Акция!!

Alien_Rage

RePack

fifa19

RePack

Assassins Creed: Odyssey

RePack

NEED FOR SPEED™ PAYBACK

4 сезон

9 сезон

Бесстыжие 9 сезон

Все сериалы

все сериалы на PB.wtf

RePack

FAR CRY 5
  

Миссисипи в огне / Mississippi Burning (Алан Паркер) [1988, триллер, драма, криминал, BDRip 1080p от еnvy / NNNB] DUB, DVO, AVO pb.wtf

Миссисипи в огне через торрент pb.wtf

Раздают: 8 [ 0 KB/s ]
Размер: 11.53 GB | Добавлен: 3 года 5 мес. назад | Торрент скачан:22 раза
Скачать  

24-05-2017 15:41 Миссисипи в огне Скачать торрент  

Информация о фильме

Русское название: Миссисипи в огне
Оригинальное название: Mississippi Burning
Год выхода: 1988
Жанр: триллер, драма, криминал
Режиссер: Алан Паркер
Выпущено: США
Продолжительность: 02:07:22
Перевод: Дублированный (советский дубляж), Профессиональный (двухголосый, закадровый), Авторский (одноголосый, закадровый)
В ролях: Джин Хэкмен, Уиллем Дефо, Фрэнсис МакДорманд, Брэд Дуриф, Р. Ли Эрми, Гейлард Сартейн, Стивен Тоболовски, Майкл Рукер, Прюитт Тэйлор Винс, Баджа Джола
Описание:

Миссисипи 1964г. Убийство трех борцов за права человека поднимает волну массовых беспорядков. Два агента ФБР - Андерсон и Уорд получают задание - расследовать дело и найти преступников.
Жена местного шерифа, помогающая Андерсону и Уорду в ведении дела, открывает секрет, бросающий тень на главных людей в городе, делая тех участниками кровавого заговора. Но это не останавливает Андерсона, агента с многолетним опытом. Он знает, что иногда для достижения цели необходимо преступить закон, иначе убийцы останутся на свободе.


Файл

Качество: BDRip 1080p (исходник Blu-Ray Remux 1080p)
Формат: MKV
Видео: 1918x1040, 12213 Кбит/сек, 23,976 кадр/сек, AVC, x264, High@L4.1, 1.85:1, 0.255 Бит/[Пиксели*Кадры]
Аудио 1: AC-3, 192 Кбит/сек, 2 канала(ов), 48,0 КГц - Дублированный, Советский дубляж / Русский
Аудио 2: AC-3, 192 Кбит/сек, 2 канала(ов), 48,0 КГц - Двухголосый закадровый / Русский
Аудио 3: AC-3, 192 Кбит/сек, 2 канала(ов), 48,0 КГц - Одноголосый закадровый, Ю.Сербин / Русский
Аудио 4: AC-3, 192 Кбит/сек, 2 канала(ов), 48,0 КГц - Оригинал / Английский
Субтитры: Английские | Полные / SDH
Форсированные субтитры: Нет
Чаптеры (Главы): Есть






Автор Рипа: Группа:


Format : Matroska
Format version : Version 2
File size : 11.5 GiB
Duration : 2 h 7 min
Overall bit rate : 13.0 Mb/s
Movie name : Mississippi Burning.(1988).BDRip.1080p.[envy]
Encoded date : UTC 2017-05-23 17:45:52
Writing application : mkvmerge v5.8.0 ('No Sleep / Pillow') built on Sep 2 2012 15:37:04
Writing library : libebml v1.2.3 + libmatroska v1.3.0

Video
ID : 1
Format : AVC
Format/Info : Advanced Video Codec
Format profile : High@L4.1
Format settings, CABAC : Yes
Format settings, ReFrames : 4 frames
Codec ID : V_MPEG4/ISO/AVC
Duration : 2 h 7 min
Bit rate : 12.2 Mb/s
Width : 1 918 pixels
Height : 1 040 pixels
Display aspect ratio : 1.85:1
Frame rate mode : Constant
Frame rate : 23.976 (24000/1001) FPS
Color space : YUV
Chroma subsampling : 4:2:0
Bit depth : 8 bits
Scan type : Progressive
Bits/(Pixel*Frame) : 0.255
Stream size : 10.6 GiB (92%)
Title : Mississippi Burning.(1988).BDRip.1080p.[envy]
Writing library : x264 core 148 r2744 b97ae06
Encoding settings : cabac=1 / ref=4 / deblock=1:-3:-3 / analyse=0x3:0x133 / me=umh / subme=11 / psy=1 / psy_rd=1.00:0.00 / mixed_ref=1 / me_range=32 / chroma_me=1 / trellis=2 / 8x8dct=1 / cqm=0 / deadzone=21,11 / fast_pskip=0 / chroma_qp_offset=-2 / threads=12 / lookahead_threads=1 / sliced_threads=0 / nr=0 / decimate=1 / interlaced=0 / bluray_compat=0 / constrained_intra=0 / bframes=5 / b_pyramid=2 / b_adapt=2 / b_bias=0 / direct=3 / weightb=1 / open_gop=0 / weightp=2 / keyint=240 / keyint_min=23 / scenecut=40 / intra_refresh=0 / rc=2pass / mbtree=0 / bitrate=12213 / ratetol=2.0 / qcomp=0.60 / qpmin=0 / qpmax=69 / qpstep=4 / cplxblur=20.0 / qblur=0.5 / ip_ratio=1.40 / pb_ratio=1.30 / aq=1:0.65
Language : English
Default : Yes
Forced : No

Audio #1
ID : 2
Format : AC-3
Format/Info : Audio Coding 3
Format settings, Endianness : Big
Codec ID : A_AC3
Duration : 2 h 7 min
Bit rate mode : Constant
Bit rate : 192 kb/s
Channel(s) : 2 channels
Channel positions : Front: L R
Sampling rate : 48.0 kHz
Frame rate : 31.250 FPS (1536 spf)
Bit depth : 16 bits
Compression mode : Lossy
Stream size : 175 MiB (1%)
Title : Dub
Language : Russian
Service kind : Complete Main
Default : Yes
Forced : No

Audio #2
ID : 3
Format : AC-3
Format/Info : Audio Coding 3
Format settings, Endianness : Big
Codec ID : A_AC3
Duration : 2 h 7 min
Bit rate mode : Constant
Bit rate : 192 kb/s
Channel(s) : 2 channels
Channel positions : Front: L R
Sampling rate : 48.0 kHz
Frame rate : 31.250 FPS (1536 spf)
Bit depth : 16 bits
Compression mode : Lossy
Stream size : 175 MiB (1%)
Title : DVO
Language : Russian
Service kind : Complete Main
Default : No
Forced : No

Audio #3
ID : 4
Format : AC-3
Format/Info : Audio Coding 3
Format settings, Endianness : Big
Codec ID : A_AC3
Duration : 2 h 7 min
Bit rate mode : Constant
Bit rate : 192 kb/s
Channel(s) : 2 channels
Channel positions : Front: L R
Sampling rate : 48.0 kHz
Frame rate : 31.250 FPS (1536 spf)
Bit depth : 16 bits
Compression mode : Lossy
Stream size : 175 MiB (1%)
Title : AVO Сербин
Language : Russian
Service kind : Complete Main
Default : No
Forced : No

Audio #4
ID : 5
Format : AC-3
Format/Info : Audio Coding 3
Format settings, Endianness : Big
Codec ID : A_AC3
Duration : 2 h 7 min
Bit rate mode : Constant
Bit rate : 192 kb/s
Channel(s) : 2 channels
Channel positions : Front: L R
Sampling rate : 48.0 kHz
Frame rate : 31.250 FPS (1536 spf)
Bit depth : 16 bits
Compression mode : Lossy
Stream size : 175 MiB (1%)
Title : Eng
Language : English
Service kind : Complete Main
Default : No
Forced : No

Text
ID : 6
Format : UTF-8
Codec ID : S_TEXT/UTF8
Codec ID/Info : UTF-8 Plain Text
Title : Eng full SDH
Language : English
Default : No
Forced : No

Menu
00:00:00.000 : :Chapter 01
00:04:51.414 : :Chapter 02
00:10:32.505 : :Chapter 03
00:16:34.826 : :Chapter 04
00:19:36.424 : :Chapter 05
00:26:15.699 : :Chapter 06
00:32:59.059 : :Chapter 07
00:37:17.777 : :Chapter 08
00:42:06.648 : :Chapter 09
00:46:51.056 : :Chapter 10
00:54:09.788 : :Chapter 11
00:57:52.760 : :Chapter 12
01:04:45.505 : :Chapter 13
01:09:38.215 : :Chapter 14
01:15:06.542 : :Chapter 15
01:19:34.685 : :Chapter 16
01:25:52.979 : :Chapter 17
01:31:10.671 : :Chapter 18
01:37:06.237 : :Chapter 19
01:42:33.689 : :Chapter 20
01:46:27.588 : :Chapter 21
01:51:16.293 : :Chapter 22
01:57:44.222 : :Chapter 23
02:02:55.368 : :Chapter 24
02:06:51.811 : :Chapter 25

pb.wtf



Скачать Миссисипи в огне через торрент http://img11.lostpic.net/2017/05/24/576f6c445028c446040c8bb9eb1273d8.png Скачать фильм Миссисипи в огне через торрент бесплантно в хорошем качестве Описание:Миссисипи 1964г. Убийство трех борцов за права человека поднимает волну массовых беспорядков. Два агента ФБР - Андерсон и Уорд ... 10 10 2
Info! Золотая раздача, скачанное не засчитывается.
Торрент: Зарегистрирован [2017-05-24 15:41] · скачан: 22 раз
Статус: √ проверено
Размер: 11.53 GB
Как cкачать? Как скачать Миссисипи в огне через торрент | qTorrent

% Раздел Тема Автор DL S | L
Фильмы [HD 720p, 1080p] (Хороший звук DUB, MVO) [ 16.12 GB ] Миссисипи в огне / Mississippi Burning [1988 BDRip 1080p by msltel] DUB DVO AVO msltel Скачать
1 | 0
Фильмы [HD 720p, 1080p] (Хороший звук DUB, MVO) [ 6.33 GB ] Миссисипи в огне / Mississippi Burning [1988 BDRip 720p by msltel] DUB DVO AVO msltel Скачать
1 | 0

28-11-2019 20:33  

Отключить всю рекламу на сайте

    Дорогой пользователь! Огромная просьба, поблагодарите релизера, оцените раздачу и оставьте свои комментарий, если Вы скачали Миссисипи в огне через торрент бесплатно! Внесите свою лепту в развитие PiratBit!
    Комментировать посты могут только пользователи прошедшие не сложную регистрацию
    Показать сообщения:    

    Миссисипи в огне через торрент
    Скачать бесплатно Миссисипи в огне
    Миссисипи в огне скачать торрент
    Миссисипи в огне смотреть онлайн
    Cкачать фильм Миссисипи в огне бесплатно
    Миссисипи в огне скачать торрент в хорошем качестве
    Миссисипи в огне смотреть онлайн бесплатно в хорошем качестве


    Вы не можете начинать темы
    Вы не можете отвечать на сообщения
    Вы не можете редактировать свои сообщения
    Вы не можете удалять свои сообщения
    Вы не можете голосовать в опросах
    Вы не можете прикреплять файлы к сообщениям
    Вы можете скачивать файлы