Ссылка на приватное зеркало всего за 1$. Внимание количество ограничено!!!

iTunes

iTunes

iTunes

1

iTunes

iTunes

iTunes

iTunes

iTunes

30
pack

$ от Little Big

ВАЖНО

!!Акция!!

Alien_RageХит недели

RePack

Resident Evil 21

ИГРА 18+

pack

RePack

jed

!!Акция!!

Alien_Rage

RePack

fifa19

RePack

Assassins Creed: Odyssey

RePack

NEED FOR SPEED™ PAYBACK

4 сезон

9 сезон

Бесстыжие 9 сезон

Все сериалы

все сериалы на PB.wtf

RePack

FAR CRY 5
  

Передельщик / Redivide / Kill Switch (Тим Смит) [2017, фантастика, боевик, WEB-DL 1080p] VO [BadBajo] pb.wtf

Передельщик через торрент pb.wtf

Размер: 3.38 GB | Добавлен: 3 года 1 мес. назад | Торрент скачан:343 раза
Скачать  

24-05-2017 18:35 Передельщик Скачать торрент  

Передельщик / Redivide / Kill Switch

Год выпуска: 2017
Страна: Нидерланды, Германия, США
Жанр: фантастика, боевик
Продолжительность: 01:31:16
Перевод: Любительский одноголосый [BadBajo]
Примечание: Релиз без рекламы
Субтитры: английские
Режиссер: Тим Смит
В ролях:

Дон Альфонсо (Rebel Soldier), Хлоя-Мэй Катхилл (Alterplex рассказчик), Тиго Гернандт (Michael de Ruiter), Бас Кейзер (Bektman), Мике Либанон (Hugo), Беренис Марло (Abby Vos), Майк Реус (Dr. Klintsen), Гийс Шолтен ван Ашат (August Reynard), Дэн Стивенс (Will Porter), Чарити Уэйкфилд (Mia Kreiss), Бастиан Рук (Soldier, в титрах не указан)
Описание:
Энергетическая компания «Альтерплекс» придумала, как получить доступ к неограниченной энергии. Для этих целей было построено устройство под названием Башня, которое получает энергию в чистом виде. Представители «Альтерплекса» нанимают бывшего астронавта Уилла для выполнения опасного задания.
Рейтинг:

MPAA: R - Лицам до 17 лет обязательно присутствие взрослого
Качество: WEB-DL 1080p
Формат: MKV
Видео: AVC, 1904x792 (2.40:1), 4425 kbps, 23,976 fps, 0,122 bpp
Аудио №1: русский / AC3 / 5.1 / 48 kHz / 384 kbps / |VO, BadBajo|
Аудио №2: английский / AC3 / 5.1 / 48 kHz / 384 kbps /
Навигация по главам: есть

General
Unique ID : 175851447396497997697019706338931483130 (0x844BC1BFA45BBCCAB82A374E8939A1FA)
Complete name : E:\Kill.Switch.2017.1080p.WEB-DL.DD5.1.H264_rus_BadBajo.mkv
Format : Matroska
Format version : Version 4 / Version 2
File size : 3.38 GiB
Duration : 1 h 31 min
Overall bit rate : 5 299 kb/s
Movie name : Kill.Switch.2017.1080p.WEB-DL.DD5.1.H264-FGT
Encoded date : UTC 2017-05-19 19:40:07
Writing application : mkvmerge v9.5.0 ('Quiet Fire') 64bit
Writing library : libebml v1.3.4 + libmatroska v1.4.5
Cover : Yes
Attachments : cover.jpg

Video
ID : 1
Format : AVC
Format/Info : Advanced Video Codec
Format profile : High@L4
Format settings, CABAC : Yes
Format settings, ReFrames : 5 frames
Codec ID : V_MPEG4/ISO/AVC
Duration : 1 h 31 min
Bit rate : 4 425 kb/s
Width : 1 904 pixels
Height : 792 pixels
Display aspect ratio : 2.40:1
Frame rate mode : Constant
Frame rate : 23.976 (24000/1001) FPS
Color space : YUV
Chroma subsampling : 4:2:0
Bit depth : 8 bits
Scan type : Progressive
Bits/(Pixel*Frame) : 0.122
Stream size : 2.82 GiB (84%)
Title : Kill.Switch.2017.1080p.WEB-DL.DD5.1.H264-FGT
Language : English
Default : Yes
Forced : No
Color range : Limited
Color primaries : BT.709
Transfer characteristics : BT.709
Matrix coefficients : BT.709

Audio #1
ID : 2
Format : AC-3
Format/Info : Audio Coding 3
Mode extension : CM (complete main)
Format settings, Endianness : Big
Codec ID : A_AC3
Duration : 1 h 31 min
Bit rate mode : Constant
Bit rate : 384 kb/s
Channel(s) : 6 channels
Channel positions : Front: L C R, Side: L R, LFE
Sampling rate : 48.0 kHz
Frame rate : 31.250 FPS (1536 spf)
Compression mode : Lossy
Delay relative to video : -42 ms
Stream size : 251 MiB (7%)
Title : Kill.Switch.2017_rus_BadBajo
Language : Russian
Default : Yes
Forced : Yes

Audio #2
ID : 3
Format : AC-3
Format/Info : Audio Coding 3
Mode extension : CM (complete main)
Format settings, Endianness : Big
Codec ID : A_AC3
Duration : 1 h 31 min
Bit rate mode : Constant
Bit rate : 384 kb/s
Channel(s) : 6 channels
Channel positions : Front: L C R, Side: L R, LFE
Sampling rate : 48.0 kHz
Frame rate : 31.250 FPS (1536 spf)
Compression mode : Lossy
Delay relative to video : -42 ms
Stream size : 251 MiB (7%)
Title : Kill.Switch.2017.1080p.WEB-DL.DD5.1.H264-FGT
Language : English
Default : No
Forced : No

Text
ID : 4
Format : UTF-8
Codec ID : S_TEXT/UTF8
Codec ID/Info : UTF-8 Plain Text
Language : English
Default : No
Forced : No

Menu
00:00:00.000 : en:Opening Sequence
00:05:37.000 : en:Echo Damage Report
00:11:20.000 : en:In The Dark
00:17:19.000 : en:Gravitational Portal
00:23:50.000 : en:Restricted Area
00:29:28.000 : en:Greatest Challenge Yet
00:36:45.000 : en:Homesick
00:41:01.000 : en:They Evacuated
00:47:10.000 : en:Back Me Up
00:53:24.000 : en:It's This Whole Place
00:58:09.000 : en:Give Me The Box
01:04:22.000 : en:Don't Go
01:09:03.000 : en:Don't Trust Him
01:15:02.000 : en:Where's The Box?
01:21:13.000 : en:A Big Responsibility
01:27:27.000 : en:End Credits
pb.wtf



Скачать Передельщик через торрент http://i3.imageban.ru/out/2017/05/24/8579e8b6a190cade8435f62ec50a93dc.jpg Скачать фильм Передельщик через торрент бесплантно в хорошем качестве Описание: Энергетическая компания «Альтерплекс» придумала, как получить доступ к неограниченной энергии. Для этих целей было построено ... 9.3 10 13
Info! Золотая раздача, скачанное не засчитывается.
Торрент: Зарегистрирован [2017-05-24 18:35] · скачан: 343 раз
Статус: T временная
Размер: 3.38 GB
Как cкачать? Как скачать Передельщик через торрент | qTorrent

% Раздел Тема Автор DL S | L
Фильмы с авторской озвучкой [ 1.37 GB ] Рубильник / Передельщик / Redivider / Kill Switch [2017 BDRip] AVO [BadBajo] - ExKinoRay Enigma2010 Скачать
1 | 0
Фильмы с авторской озвучкой [ 3.07 GB ] Рубильник / Передельщик / Redivider / Kill Switch [2017 BDRip 720p] AVO [BadBajo] - ExKinoRay Enigma2010 Скачать
1 | 0

28-11-2019 20:33  

Отключить всю рекламу на сайте

24-05-2017 23:00 Передельщик Скачать торрент  

как оно?pb.wtf



25-05-2017 01:33 Передельщик Скачать торрент  

Фильм огонь! Идея фильма просто потрясает, смотрится на одном дыхании! Сейчас качаю дабы пересмотреть внимательней, просмаковать т.с.
Реально потряс!pb.wtf



25-05-2017 17:41 Передельщик Скачать торрент  

Jekka70, ты слаще жеванной морковки наэн тоже ничего не ел, если тебя так потрясла эта нудятина???? с трудом досмотрел до конца, реально потряс бы лучше коврики из авто повнимательней на улице вместо траты времени на сей шедевр))))))))pb.wtf
!-Lexx- писал(а):

rokkrokk4884, не переходите на личности, у каждого свое мнение о фильме, высказывайтесь корректно.
Устное предупреждение.



    Дорогой пользователь! Огромная просьба, поблагодарите релизера, оцените раздачу и оставьте свои комментарий, если Вы скачали Передельщик через торрент бесплатно! Внесите свою лепту в развитие PiratBit!
    Комментировать посты могут только пользователи прошедшие не сложную регистрацию
    Показать сообщения:    

    Передельщик через торрент
    Скачать бесплатно Передельщик
    Передельщик скачать торрент
    Передельщик смотреть онлайн
    Cкачать фильм Передельщик бесплатно
    Передельщик скачать торрент в хорошем качестве
    Передельщик смотреть онлайн бесплатно в хорошем качестве


    Вы не можете начинать темы
    Вы не можете отвечать на сообщения
    Вы не можете редактировать свои сообщения
    Вы не можете удалять свои сообщения
    Вы не можете голосовать в опросах
    Вы не можете прикреплять файлы к сообщениям
    Вы можете скачивать файлы