2 сезон

iTunes

MVO

1

2 сезон

iTunes

iTunes

1 сезон

RePack

30

Ultimate

ВАЖНО

ИГРА 18+

pack

RePack

MK11
pack

Легкие деньги

RePack

jed

RePack

fifa19

RePack

RDR2

RePack

NEED FOR SPEED™ PAYBACK

4 сезон

9 сезон

Бесстыжие 9 сезон

Все сериалы

все сериалы на PB.wtf

RePack

FAR CRY 5

Anonymous, добрый вечер, мы не успеваем собрать деньги на оплату серверов за декабрь и январь, помогите нам пожалуйста в это трудное время. В качестве благодарности мы отключим Вам всю рекламу на сайте (укажите свой ник в строку Ваше имя)!

×
  
Magnet ссылка

Фантазм 4: Забвение / Phantasm IV: Oblivion (Дон Коскарелли) [1998, ужасы, фантастика, фэнтези, BDRip] MVO pb.wtf

Фантазм 4: Забвение через торрент pb.wtf

Размер: 1.46 GB | Добавлен: 3 года 7 мес. назад | Торрент скачан:13 раз
Скачать  

25-05-2017 08:29 Фантазм 4: Забвение Скачать торрент  

Фантазм 4: Забвение / Phantasm IV: Oblivion
««You Can't Go Forward Until You've Gone Back»»

Год выпуска: 1998
Страна: США
Жанр: ужасы, фантастика, фэнтези

Продолжительность: 01:30:01
Перевод: Профессиональный (многоголосый) [D2Lab]
Субтитры: русские (внешние, присутствует ненормативная лексика)
Режиссер: Дон Коскарелли
В ролях:

А. Майкл Болдуин (Mike), Рэджи Бэннистер (Reggie), Билл Торнбери (Jody), Хейди Марноут (Jennifer), Боб Айви (Demon Trooper), Энгус Скримм (The Tall Man / Dr. Jebediah Morningside), Кристофер Л. Стоун (Music & Dwarf Creatures, озвучка), Хлоя Кэй (Background Player), Сильвия Фламмер (Background Player), Дэвид Гасстер (Background Player), Саша Кэссел (Background Player), Эйдан Кэссел (Background Player)
Описание:
В этой части выясняется, что Высокий человек раньше был хирургом и сконструировал непонятный аппарат для путешествия в параллельный мир, где ему имплантировали в голову сферу с некой мыслящей субстанцией, приказывавающей ездить по городам и делать из людей зомби...
Рейтинг:

MPAA: R - Лицам до 17 лет обязательно присутствие взрослого
Качество: BDRip
Формат: AVI
Видео: XviD, 720x400 (16:9), 1863 kbps, 23,976 fps, 0,270 bpp
Аудио: AC3 / 5.1 / 48 kHz / 448 kbps /

General
Complete name : E:\Phantasm.IV.1998.BDRip\Phantasm.IV.1998.BDRip.avi
Format : AVI
Format/Info : Audio Video Interleave
File size : 1.46 GiB
Duration : 1 h 30 min
Overall bit rate : 2 320 kb/s
Writing application : VirtualDubModRus 1.5.10.2 (build 2542/release)
Writing library : VirtualDubMod build 2542/release

Video
ID : 0
Format : MPEG-4 Visual
Format profile : Advanced Simple@L5
Format settings, BVOP : 1
Format settings, QPel : No
Format settings, GMC : No warppoints
Format settings, Matrix : Custom
Codec ID : XVID
Codec ID/Hint : XviD
Duration : 1 h 30 min
Bit rate : 1 863 kb/s
Width : 720 pixels
Height : 400 pixels
Display aspect ratio : 16:9
Frame rate : 23.976 (23976/1000) FPS
Color space : YUV
Chroma subsampling : 4:2:0
Bit depth : 8 bits
Scan type : Progressive
Compression mode : Lossy
Bits/(Pixel*Frame) : 0.270
Stream size : 1.17 GiB (80%)
Writing library : XviD 73

Audio
ID : 1
Format : AC-3
Format/Info : Audio Coding 3
Mode extension : CM (complete main)
Format settings, Endianness : Big
Codec ID : 2000
Duration : 1 h 29 min
Bit rate mode : Constant
Bit rate : 448 kb/s
Channel(s) : 6 channels
Channel positions : Front: L C R, Side: L R, LFE
Sampling rate : 48.0 kHz
Frame rate : 31.250 FPS (1536 spf)
Compression mode : Lossy
Stream size : 288 MiB (19%)
Alignment : Split accross interleaves
Interleave, duration : 42 ms (1.00 video frame)
Interleave, preload duration : 500 ms
pb.wtf



Скачать Фантазм 4: Забвение через торрент http://i4.imageban.ru/out/2017/05/25/30c5d276297a1f6abab69ee69e31e05c.jpg Скачать фильм Фантазм 4: Забвение через торрент бесплантно в хорошем качестве Описание: В этой части выясняется, что Высокий человек раньше был хирургом и сконструировал непонятный аппарат для путешествия в ... 10 10 3
Торрент: Зарегистрирован [2017-05-25 08:29] · скачан: 13 раз
Статус: √ проверено
Размер: 1.46 GB
Как cкачать? Как скачать Фантазм 4: Забвение через торрент | UTorrent

% Раздел Тема Автор DL S | L
Фильмы (Blu-ray, BD-Remux, HDDVD) [ 24.83 GB ] Фантазм 4: Забвение / Phantasm IV: Oblivion [1998 BDRemux 1080р] MVO + 3x AVO -Lexx- Скачать
1 | 0

28-11-2019 20:33  

Отключить всю рекламу на сайте

    Дорогой пользователь! Огромная просьба, поблагодарите релизера, оцените раздачу и оставьте свои комментарий, если Вы скачали Фантазм 4: Забвение через торрент бесплатно! Внесите свою лепту в развитие PiratBit!
    Комментировать посты могут только пользователи прошедшие не сложную регистрацию
    Показать сообщения:    

    Фантазм 4: Забвение через торрент
    Скачать бесплатно Фантазм 4: Забвение
    Фантазм 4: Забвение скачать торрент
    Фантазм 4: Забвение смотреть онлайн
    Cкачать фильм Фантазм 4: Забвение бесплатно
    Фантазм 4: Забвение скачать торрент в хорошем качестве
    Фантазм 4: Забвение смотреть онлайн бесплатно в хорошем качестве


    Вы не можете начинать темы
    Вы не можете отвечать на сообщения
    Вы не можете редактировать свои сообщения
    Вы не можете удалять свои сообщения
    Вы не можете голосовать в опросах
    Вы не можете прикреплять файлы к сообщениям
    Вы можете скачивать файлы