2 сезон

iTunes

1 сезон

1

iTunes

iTunes

iTunes

1 сезон

RePack

30

ИГРА 18+

pack

ВАЖНО

!!Акция!!

Alien_RageХит недели

RePack

MK11
pack

Забери бонус

RePack

jed

!!Акция!!

Alien_Rage

RePack

fifa19

RePack

Assassins Creed: Odyssey

RePack

NEED FOR SPEED™ PAYBACK

4 сезон

9 сезон

Бесстыжие 9 сезон

Все сериалы

все сериалы на PB.wtf

RePack

FAR CRY 5
  

Лего Фильм: Бэтмен / The LEGO Batman Movie (Крис МакКей) [2017, мультфильм, фэнтези, боевик, WEB-DLRip] Дубляж - [Лицензия / iTunes] pb.wtf

Лего Фильм: Бэтмен через торрент pb.wtf

Раздают: 1 [ 0 KB/s ]
Размер: 1.46 GB | Добавлен: 3 года 5 мес. назад | Торрент скачан:554 раза
Скачать  

25-05-2017 11:59 Лего Фильм: Бэтмен Скачать торрент  

Лего Фильм: Бэтмен / The LEGO Batman Movie
««Всегда будь собой. Если только ты не Бэтмен»»

Год выпуска: 2017
Страна: США, Дания
Жанр: мультфильм, фэнтези, боевик, комедия, приключения, семейный

Продолжительность: 01:44:28
Перевод: Дубляж - [Лицензия / iTunes]
Субтитры: Русские форсированные (отдельно)
Режиссер: Крис МакКей
В ролях:

Уилл Арнетт (Batman / Bruce Wayne, озвучка), Майкл Сера (Robin / Dick Grayson, озвучка), Розарио Доусон (Batgirl / Barbara Gordon, озвучка), Рэйф Файнс (Alfred Pennyworth, озвучка), Сири ('Puter, озвучка), Зак Галифианакис (Joker, озвучка), Дженни Слейт (Harley Quinn, озвучка), Джейсон Манцукас (Scarecrow, озвучка), Конан О’Брайен (The Riddler, озвучка), Даг Бенсон (Bane, озвучка), Билли Ди Уильямс (Two-Face, озвучка), Зои Кравиц (Catwoman, озвучка)
Описание:
Готэму вновь грозит опасность. И на его стражу становится единственный герой, которого заслуживает этот город - Бэтмен, альтер-эго миллиардера Брюса Уэйна, живущего в своем огромном родовом поместье вместе с дворецким Альфредом. Но в этот раз супергерой вынужден взять в напарники парня по имени Дик Грейсон, которого он, сам того не помня, усыновил на одном из светских приемов. Новоиспеченный Робин составит Бэтмену компанию в борьбе с его заклятым врагом Джокером, сбежавшим из психиатрической больницы «Аркхем», а также Харли Куинн, готовой на самые сумасшедшие злодеяния, чтобы оставить в дураках всю «Лигу Справедливости», включая Бэтгерл.
Рейтинг:

MPAA: PG - Рекомендуется присутствие родителей
Качество: WEB-DLRip
Формат: AVI
Видео: XviD, 720x304 (2.35:1), 1607 kbps, 23,976 fps, 0,306 bpp
Аудио: AC3 / 5.1 / 48 kHz / 384 kbps /
Релиз от: MegaPeer
General
Complete name : E:\The.Lego.Batman.The.Movie.2017.WEB-DLRip.1.46Gb.MegaPeer\The.Lego.Batman.The.Movie.2017.WEB-DLRip.1.46Gb.MegaPeer.avi
Format : AVI
Format/Info : Audio Video Interleave
File size : 1.46 GiB
Duration : 1 h 44 min
Overall bit rate : 2 001 kb/s
Writing application : VirtualDubMod 1.5.10.2 (build 2540/release)
Writing library : VirtualDubMod build 2540/release

Video
ID : 0
Format : MPEG-4 Visual
Format profile : Advanced Simple@L5
Format settings, BVOP : 1
Format settings, QPel : No
Format settings, GMC : No warppoints
Format settings, Matrix : Custom
Codec ID : XVID
Codec ID/Hint : XviD
Duration : 1 h 44 min
Bit rate : 1 608 kb/s
Width : 720 pixels
Height : 304 pixels
Display aspect ratio : 2.35:1
Frame rate : 23.976 (24000/1001) FPS
Color space : YUV
Chroma subsampling : 4:2:0
Bit depth : 8 bits
Scan type : Progressive
Compression mode : Lossy
Bits/(Pixel*Frame) : 0.306
Stream size : 1.17 GiB (80%)
Writing library : XviD 73

Audio
ID : 1
Format : AC-3
Format/Info : Audio Coding 3
Mode extension : CM (complete main)
Format settings, Endianness : Big
Codec ID : 2000
Duration : 1 h 44 min
Bit rate mode : Constant
Bit rate : 384 kb/s
Channel(s) : 6 channels
Channel positions : Front: L C R, Side: L R, LFE
Sampling rate : 48.0 kHz
Frame rate : 31.250 FPS (1536 spf)
Compression mode : Lossy
Stream size : 287 MiB (19%)
Alignment : Split accross interleaves
Interleave, duration : 42 ms (1.00 video frame)
Interleave, preload duration : 500 ms
pb.wtf



Скачать Лего Фильм: Бэтмен через торрент http://i6.imageban.ru/out/2017/05/25/83ca521862950c31f80c2e0b95884ef0.jpg Скачать фильм Лего Фильм: Бэтмен через торрент бесплантно в хорошем качестве Описание: Готэму вновь грозит опасность. И на его стражу становится единственный герой, которого заслуживает этот город - Бэтмен, ... 10 10 11
Торрент: Зарегистрирован [2017-05-25 11:59] · скачан: 554 раз
Статус: √ проверено
Размер: 1.46 GB
Как cкачать? Как скачать Лего Фильм: Бэтмен через торрент | qTorrent

% Раздел Тема Автор DL S | L
Ultra HD (UHD: 2K, 4K, 8K) [ 39.36 GB ] Лего Фильм: Бэтмен / The LEGO Batman Movie [2017 мультфильм UHD BDRemux 2160p] [] sheker187 Скачать
1 | 0
3D Мультфильмы [ 9.36 GB ] Лего Фильм: Бэтмен в 3Д / The LEGO Batman Movie 3D [2017 Мультфильм BDRip 1080p] DUB / OverUnder / Вертикальная стереопара serega768 Скачать
1 | 0
Ultra HD (UHD: 2K, 4K, 8K) [ 35.54 GB ] Лего Фильм: Бэтмен / The LEGO Batman Movie [2017 мультфильм UHD BDRemux 2160p] [] sheker187 Скачать
2 | 0
R.G.Resident - Мультфильмы, Видео [ 2.32 GB ] Лего Фильм: Бэтмен / The LEGO Batman Movie [2017 мультфильм BDRip-AVC] - schultz Скачать
1 | 0
Иностранные мультфильмы [ 1.46 GB ] Лего Фильм: Бэтмен / The LEGO Batman Movie [2017 мультфильм BDRip] - [] Twi7ter Скачать
7 | 0
Зарубежные Мультфильмы (BDRip 1080p, 720p, Blu-ray, BD-Remux) [ 17.96 GB ] Лего Фильм: Бэтмен / The LEGO Batman Movie [2017 Мультфильм полнометражный BD Remux ] Бумер Скачать
1 | 0
3D Фильмы [ 7.44 GB ] Лего Фильм: Бэтмен в 3Д / The LEGO Batman Movie 3D [2017 мультфильм BDRip 1080p] Dub / Half OverUnder / Вертикальная анаморфная стереопара sheker187 Скачать
1 | 0

28-11-2019 20:33  

Отключить всю рекламу на сайте

01-06-2017 15:57 Лего Фильм: Бэтмен Скачать торрент  

Спасибо за мультик посмотрю, что это за тру бэтмен pb.wtf



    Дорогой пользователь! Огромная просьба, поблагодарите релизера, оцените раздачу и оставьте свои комментарий, если Вы скачали Лего Фильм: Бэтмен через торрент бесплатно! Внесите свою лепту в развитие PiratBit!
    Комментировать посты могут только пользователи прошедшие не сложную регистрацию
    Показать сообщения:    

    Лего Фильм: Бэтмен через торрент
    Скачать бесплатно Лего Фильм: Бэтмен
    Лего Фильм: Бэтмен скачать торрент
    Лего Фильм: Бэтмен смотреть онлайн
    Cкачать фильм Лего Фильм: Бэтмен бесплатно
    Лего Фильм: Бэтмен скачать торрент в хорошем качестве
    Лего Фильм: Бэтмен смотреть онлайн бесплатно в хорошем качестве


    Вы не можете начинать темы
    Вы не можете отвечать на сообщения
    Вы не можете редактировать свои сообщения
    Вы не можете удалять свои сообщения
    Вы не можете голосовать в опросах
    Вы не можете прикреплять файлы к сообщениям
    Вы можете скачивать файлы