2 сезон

iTunes

MVO

1

2 сезон

iTunes

iTunes

1 сезон

RePack

30

Ultimate

ВАЖНО

ИГРА 18+

pack

RePack

MK11
pack

Легкие деньги

RePack

jed

RePack

fifa19

RePack

RDR2

RePack

NEED FOR SPEED™ PAYBACK

4 сезон

9 сезон

Бесстыжие 9 сезон

Все сериалы

все сериалы на PB.wtf

RePack

FAR CRY 5

Anonymous, добрый день, мы не успеваем собрать деньги на оплату серверов за декабрь и январь, помогите нам пожалуйста в это трудное время. В качестве благодарности мы отключим Вам всю рекламу на сайте (укажите свой ник в строку Ваше имя)!

×
  
Magnet ссылка

Логан / Logan (Джеймс Мэнголд) [2017, Фантастика, боевик, триллер, драма, BDRip-AVC, NOIR Edition] DUB [iTunes], MVO - ExKinoRay pb.wtf

Логан через торрент pb.wtf

Размер: 2.4 GB | Добавлен: 3 года 7 мес. назад | Торрент скачан:358 раз
Скачать  

25-05-2017 22:09 Логан Скачать торрент  

Информация о фильме
Название: Логан
Оригинальное название: Logan
Год выпуска: 2017
Жанр: Фантастика, боевик, триллер, драма
Выпущено: США / 20th Century Fox Film Corporation, Marvel Entertainment
Продолжительность: 02:17:22
Озвучивание: Дубляж [iTunes], любительский многоголосый | Paradox&Omskbird Records
Субтитры: Русские, английские, украинские
Режиссер: Джеймс Мэнголд
В ролях: Хью Джекман, Патрик Стюарт, Дафни Кин, Бойд Холбрук, Стивен Мерчант, Элизабет Родригес, Ричард Э. Грант, Эрик Ла Салль, Элиз Нил, Куинси Фаус

Описание:
В недалеком будущем уставший от жизни Логан заботится о больном профессоре Икс, который прячется неподалеку от мексиканской границы. Но Логан больше не сможет скрывать свое прошлое, когда встретится с юным мутантом, которого преследуют темные силы.


rating

Файл
Качество: BDRip (AVC)
Формат: MKV
Видео: MPEG-4 AVC, 1024x428 (2.40:1), ~ 1667 kbps avg, 23.976 FPS, 0.159 bit/pixe
Аудио 1: AC-3, 48.0 KHz, 5.1 ch, 384 Kbps, CBR (Dub)
Аудио 2: AC-3, 48.0 KHz, 5.1 ch, 448 Kbps, CBR (MVO)

Без какой-либо рекламы
General
Unique ID : 237115976517558041341942119411557964381 (0xB262E03E0C4EFC8E9D3223F313BD9A5D)
Complete name : D:\Logan.Noir.Edition.2017.2xRus.BDRip.AVC.ExKinoRay.mkv
Format : Matroska
Format version : Version 2
File size : 2.40 GiB
Duration : 2 h 17 min
Overall bit rate : 2 499 kb/s
Encoded date : UTC 2017-05-25 20:20:03
Writing application : mkvmerge v5.8.0 ('No Sleep / Pillow') built on Sep 2 2012 15:37:04
Writing library : libebml v1.2.3 + libmatroska v1.3.0

Video
ID : 1
Format : AVC
Format/Info : Advanced Video Codec
Format profile : High@L4.1
Format settings, CABAC : Yes
Format settings, ReFrames : 13 frames
Codec ID : V_MPEG4/ISO/AVC
Duration : 2 h 17 min
Bit rate : 1 667 kb/s
Width : 1 024 pixels
Height : 428 pixels
Display aspect ratio : 2.40:1
Frame rate mode : Constant
Frame rate : 23.976 (23976/1000) FPS
Color space : YUV
Chroma subsampling : 4:2:0
Bit depth : 8 bits
Scan type : Progressive
Bits/(Pixel*Frame) : 0.159
Stream size : 1.55 GiB (65%)
Title : Enigma
Writing library : x264 core 144 r2525 40bb568
Encoding settings : cabac=1 / ref=13 / deblock=1:-3:-3 / analyse=0x3:0x113 / me=umh / subme=10 / psy=1 / psy_rd=1.00:0.00 / mixed_ref=1 / me_range=32 / chroma_me=1 / trellis=2 / 8x8dct=1 / cqm=0 / deadzone=21,11 / fast_pskip=1 / chroma_qp_offset=-2 / threads=12 / lookahead_threads=2 / sliced_threads=0 / nr=0 / decimate=0 / interlaced=0 / bluray_compat=0 / constrained_intra=0 / bframes=9 / b_pyramid=2 / b_adapt=2 / b_bias=0 / direct=3 / weightb=1 / open_gop=0 / weightp=2 / keyint=240 / keyint_min=23 / scenecut=40 / intra_refresh=0 / rc=2pass / mbtree=0 / bitrate=1667 / ratetol=1.0 / qcomp=0.60 / qpmin=0 / qpmax=51 / qpstep=4 / cplxblur=20.0 / qblur=0.5 / ip_ratio=1.40 / pb_ratio=1.30 / aq=1:0.80
Language : English
Default : Yes
Forced : No
Color range : Limited
Color primaries : BT.709
Transfer characteristics : BT.709
Matrix coefficients : BT.709

Audio #1
ID : 2
Format : AC-3
Format/Info : Audio Coding 3
Mode extension : CM (complete main)
Format settings, Endianness : Big
Codec ID : A_AC3
Duration : 2 h 17 min
Bit rate mode : Constant
Bit rate : 384 kb/s
Channel(s) : 6 channels
Channel positions : Front: L C R, Side: L R, LFE
Sampling rate : 48.0 kHz
Frame rate : 31.250 FPS (1536 spf)
Compression mode : Lossy
Stream size : 377 MiB (15%)
Title : Dub
Language : Russian
Default : No
Forced : No

Audio #2
ID : 3
Format : AC-3
Format/Info : Audio Coding 3
Mode extension : CM (complete main)
Format settings, Endianness : Big
Codec ID : A_AC3
Duration : 2 h 17 min
Bit rate mode : Constant
Bit rate : 448 kb/s
Channel(s) : 6 channels
Channel positions : Front: L C R, Side: L R, LFE
Sampling rate : 48.0 kHz
Frame rate : 31.250 FPS (1536 spf)
Compression mode : Lossy
Stream size : 440 MiB (18%)
Title : MVO
Language : Russian
Default : No
Forced : No

Text #1
ID : 4
Format : UTF-8
Codec ID : S_TEXT/UTF8
Codec ID/Info : UTF-8 Plain Text
Title : forced
Language : Russian
Default : Yes
Forced : No

Text #2
ID : 5
Format : UTF-8
Codec ID : S_TEXT/UTF8
Codec ID/Info : UTF-8 Plain Text
Title : Full
Language : English
Default : No
Forced : No

Text #3
ID : 6
Format : UTF-8
Codec ID : S_TEXT/UTF8
Codec ID/Info : UTF-8 Plain Text
Language : Russian
Default : No
Forced : No

Text #4
ID : 7
Format : UTF-8
Codec ID : S_TEXT/UTF8
Codec ID/Info : UTF-8 Plain Text
Title : SDH
Language : English
Default : No
Forced : No

Text #5
ID : 8
Format : UTF-8
Codec ID : S_TEXT/UTF8
Codec ID/Info : UTF-8 Plain Text
Language : Ukrainian
Default : No
Forced : No

Menu
00:00:00.000 : en:00:00:00.000
00:05:35.126 : en:00:05:35.126
00:09:18.558 : en:00:09:18.558
00:11:41.159 : en:00:11:41.159
00:16:23.232 : en:00:16:23.232
00:20:11.669 : en:00:20:11.669
00:24:26.715 : en:00:24:26.715
00:26:11.904 : en:00:26:11.904
00:30:13.311 : en:00:30:13.311
00:31:59.126 : en:00:31:59.126
00:34:56.886 : en:00:34:56.886
00:39:53.433 : en:00:39:53.433
00:42:55.573 : en:00:42:55.573
00:45:03.826 : en:00:45:03.826
00:47:53.412 : en:00:47:53.412
00:49:39.560 : en:00:49:39.560
00:52:14.423 : en:00:52:14.423
00:54:30.517 : en:00:54:30.517
00:57:44.211 : en:00:57:44.211
01:00:10.398 : en:01:00:10.398
01:03:53.830 : en:01:03:53.830
01:06:55.511 : en:01:06:55.511
01:09:54.774 : en:01:09:54.774
01:13:15.891 : en:01:13:15.891
01:18:43.594 : en:01:18:43.594
01:21:50.906 : en:01:21:50.906
01:25:52.189 : en:01:25:52.189
01:28:38.813 : en:01:28:38.813
01:32:41.431 : en:01:32:41.431
01:35:29.724 : en:01:35:29.724
01:41:03.432 : en:01:41:03.432
01:43:39.880 : en:01:43:39.880
01:49:38.989 : en:01:49:38.989
01:54:20.562 : en:01:54:20.562
01:57:00.430 : en:01:57:00.430
01:59:20.403 : en:01:59:20.403
02:01:14.434 : en:02:01:14.434
02:05:09.627 : en:02:05:09.627
02:06:40.551 : en:02:06:40.551
02:11:07.860 : en:02:11:07.860
Релиз от:

Автор релиза: pb.wtf



Скачать Логан через торрент http://i89.fastpic.ru/big/2017/0413/3a/77ffab74b654430e82bd94e93555623a.jpg Скачать фильм Логан через торрент бесплантно в хорошем качестве Описание: В недалеком будущем уставший от жизни Логан заботится о больном профессоре Икс, который прячется неподалеку от мексиканской ... 9.9 10 11
Info! Золотая раздача, скачанное не засчитывается.
Торрент: Зарегистрирован [2017-05-25 22:09] · скачан: 358 раз
Статус: √ проверено
Размер: 2.4 GB
Как cкачать? Как скачать Логан через торрент | UTorrent

28-11-2019 20:33  

Отключить всю рекламу на сайте

26-05-2017 14:22 Логан Скачать торрент  

а чё за прикол с Ч/Б картинкой?pb.wtf



26-05-2017 15:46 Логан Скачать торрент  

так ведь NOIR EDITION.pb.wtf



    Дорогой пользователь! Огромная просьба, поблагодарите релизера, оцените раздачу и оставьте свои комментарий, если Вы скачали Логан через торрент бесплатно! Внесите свою лепту в развитие PiratBit!
    Комментировать посты могут только пользователи прошедшие не сложную регистрацию
    Показать сообщения:    

    Логан через торрент
    Скачать бесплатно Логан
    Логан скачать торрент
    Логан смотреть онлайн
    Cкачать фильм Логан бесплатно
    Логан скачать торрент в хорошем качестве
    Логан смотреть онлайн бесплатно в хорошем качестве


    Вы не можете начинать темы
    Вы не можете отвечать на сообщения
    Вы не можете редактировать свои сообщения
    Вы не можете удалять свои сообщения
    Вы не можете голосовать в опросах
    Вы не можете прикреплять файлы к сообщениям
    Вы можете скачивать файлы