Ссылка на приватное зеркало всего за 1$. Внимание количество ограничено!!!

iTunes

iTunes

iTunes

1

iTunes

iTunes

iTunes

iTunes

iTunes

30
pack

$ от Little Big

ВАЖНО

!!Акция!!

Alien_RageХит недели

RePack

Resident Evil 21

ИГРА 18+

pack

RePack

jed

!!Акция!!

Alien_Rage

RePack

fifa19

RePack

Assassins Creed: Odyssey

RePack

NEED FOR SPEED™ PAYBACK

4 сезон

9 сезон

Бесстыжие 9 сезон

Все сериалы

все сериалы на PB.wtf

RePack

FAR CRY 5
  

Моя девушка – монстр / Colossal (Начо Вигалондо) [2016, фантастика, триллер, комедия, боевик, WEB-DL 1080p] [DUB] [Лицензия / iTunes] pb.wtf

Моя девушка – монстр через торрент pb.wtf

Размер: 3.61 GB | Добавлен: 3 года 1 мес. назад | Торрент скачан:691 раз
Скачать  

26-05-2017 09:20 Моя девушка – монстр Скачать торрент  

Моя девушка – монстр / Colossal Год выхода: 2016
Жанр: фантастика, триллер, комедия, боевик
Страна: Канада, Испания
Студия: Brightlight Pictures Inc., Sayaka Producciones Audiovisuales
Продолжительность: 01:44:46
Перевод: Дублированный [Лицензия / iTunes]

Режиссер: Начо Вигалондо

В ролях: Энн Хэтэуэй, Джейсон Судейкис, Остин Стоуэлл, Тим Блейк Нельсон, Дэн Стивенс, Ханна Черами, Nathan Ellison, Сара Сурх, Haeun Hannah Cho, Карлос Джо Коста

О фильме: Гигантский монстр нападает на Сеул, разрушая все на своем пути. В Нью-Йорке потерявшая работу и бойфренда Глория понимает, что каким-то образом связана с этими фантастическими событиями.



Файл
Качество: WEB-DL 1080p
Кодек: AVC
Видео: MPEG-4 AVC, ~ 4454 Кбит/с, 1920x804, 25.000 fps
Звук: 48.0 KHz, AC3, 384 kb/s, 6 ch,
Субтитры: нет
General
Unique ID : 233600673844186976628241585608852359139 (0xAFBDDA7076A29D0CA58F43324BCDC7E3)
Complete name : E:\Моя девушка – монстр.mkv
Format : Matroska
Format version : Version 2
File size : 3.61 GiB
Duration : 1h 44mn
Overall bit rate : 4 936 Kbps
Movie name : Colossal (2016) - Release for HDCLUB
Encoded date : UTC 2017-05-26 06:44:09
Writing application : mkvmerge v3.4.0 ('Rapunzel') built on May 15 2010 09:38:20
Writing library : libebml v0.8.0 + libmatroska v0.9.0

Video
ID : 1
Format : AVC
Format/Info : Advanced Video Codec
Format profile : High@L4
Format settings, CABAC : Yes
Format settings, ReFrames : 5 frames
Codec ID : V_MPEG4/ISO/AVC
Duration : 1h 44mn
Bit rate : 4 454 Kbps
Width : 1 920 pixels
Height : 804 pixels
Display aspect ratio : 2.40:1
Frame rate mode : Constant
Frame rate : 25.000 fps
Color space : YUV
Chroma subsampling : 4:2:0
Bit depth : 8 bits
Scan type : Progressive
Bits/(Pixel*Frame) : 0.115
Stream size : 3.26 GiB (90%)
Title : Colossal (2016) - Release for HDCLUB
Language : English
Default : Yes
Forced : No
Color range : Limited
Color primaries : BT.709
Transfer characteristics : BT.709
Matrix coefficients : BT.709

Audio
ID : 2
Format : AC-3
Format/Info : Audio Coding 3
Mode extension : CM (complete main)
Format settings, Endianness : Big
Codec ID : A_AC3
Duration : 1h 44mn
Bit rate mode : Constant
Bit rate : 384 Kbps
Channel(s) : 6 channels
Channel positions : Front: L C R, Side: L R, LFE
Sampling rate : 48.0 KHz
Compression mode : Lossy
Stream size : 288 MiB (8%)
Title : AC3 5.1 @ 384 kbps - DUB, iTunes
Language : Russian
Default : Yes
Forced : No

Menu
00:00:00.000 : en:1
00:05:33.600 : en:2
00:10:24.040 : en:3
00:15:57.400 : en:4
00:21:48.400 : en:5
00:27:46.320 : en:6
00:35:28.720 : en:7
00:40:45.640 : en:8
00:46:31.840 : en:9
00:53:56.840 : en:10
01:00:48.720 : en:11
01:07:11.760 : en:12
01:13:40.240 : en:13
01:19:33.520 : en:14
01:25:36.040 : en:15
01:31:08.240 : en:16
pb.wtf



Скачать Моя девушка – монстр через торрент http://i89.fastpic.ru/big/2017/0428/7e/082e045732c03b06feea15cdea1ac77e.jpg Скачать фильм Моя девушка – монстр через торрент бесплантно в хорошем качестве О фильме: Гигантский монстр нападает на Сеул, разрушая все на своем пути. В Нью-Йорке потерявшая работу и бойфренда Глория понимает, что ... 9.4 10 15
Торрент: Зарегистрирован [2017-05-26 09:20] · скачан: 691 раз
Статус: √ проверено
Размер: 3.61 GB
Как cкачать? Как скачать Моя девушка – монстр через торрент | qTorrent

% Раздел Тема Автор DL S | L
T Фильмы [HD 720p, 1080p] (Хороший звук DUB, MVO) [ 7.94 GB ] Моя девушка – монстр / Colossal [2016 BDRip 1080p] bober100 Скачать
1 | 0
Фильмы 2016 [DVDrip, WEB-DLRip, HDrip] (DUB, MVO) [ 1.41 GB ] Моя девушка – монстр / Colossal [2016 BDRip] - Twi7ter Скачать
1 | 0
Фильмы [HD 720p, 1080p] (Хороший звук DUB, MVO) [ 4.32 GB ] Моя девушка – монстр / Colossal [2016 BDRip 720p] Dub potroks Скачать
1 | 0
Фильмы 2016 [DVDrip, WEB-DLRip, HDrip] (DUB, MVO) [ 1.8 GB ] Моя девушка - монстр / Colossal [2016 BDRip-AVC] bober100 Скачать
1 | 0
Фильмы без перевода [ 27.16 GB ] Моя девушка – монстр / Colossal [2016 BD Remux] [Оригинал-ENG] smaster Скачать
1 | 1
Фильмы 2016 [DVDrip, WEB-DLRip, HDrip] (DUB, MVO) [ 748 MB ] Моя Девушка - Монстр / Colossal [2016 WEB-DLRip] bober100 Скачать
2 | 0

28-11-2019 20:33  

Отключить всю рекламу на сайте

26-05-2017 13:11 Моя девушка – монстр Скачать торрент  

по мне никак фильм, ни о чем..pb.wtf



26-05-2017 19:43 Моя девушка – монстр Скачать торрент  

Цитата:

В мае 2015 года на фильм подали в суд, обвиняя, что в картине много сходств с кинолентой «Годзилла».


Трешак еще тот pb.wtf



    Дорогой пользователь! Огромная просьба, поблагодарите релизера, оцените раздачу и оставьте свои комментарий, если Вы скачали Моя девушка – монстр через торрент бесплатно! Внесите свою лепту в развитие PiratBit!
    Комментировать посты могут только пользователи прошедшие не сложную регистрацию
    Показать сообщения:    

    Моя девушка – монстр через торрент
    Скачать бесплатно Моя девушка – монстр
    Моя девушка – монстр скачать торрент
    Моя девушка – монстр смотреть онлайн
    Cкачать фильм Моя девушка – монстр бесплатно
    Моя девушка – монстр скачать торрент в хорошем качестве
    Моя девушка – монстр смотреть онлайн бесплатно в хорошем качестве


    Вы не можете начинать темы
    Вы не можете отвечать на сообщения
    Вы не можете редактировать свои сообщения
    Вы не можете удалять свои сообщения
    Вы не можете голосовать в опросах
    Вы не можете прикреплять файлы к сообщениям
    Вы можете скачивать файлы