Ссылка на приватное зеркало нашего сайта всего за 1$. Внимание количество ограничено!!!

2 сезон

iTunes

1 сезон

1

2 сезон

2 сезон

iTunes

1 сезон

RePack

30

Новинка

ВАЖНО

ИГРА 18+

pack

RePack

MK11
pack

Забери бонус

RePack

jed

!!Акция!!

Alien_Rage

RePack

fifa19

RePack

Assassins Creed: Odyssey

RePack

NEED FOR SPEED™ PAYBACK

4 сезон

9 сезон

Бесстыжие 9 сезон

Все сериалы

все сериалы на PB.wtf

RePack

FAR CRY 5
  

На пятьдесят оттенков темнее / Fifty Shades Darker (Джеймс Фоули) [2017, Драма, мелодрама, BDRemux 1080p от ExKinoRay] Расширенная версия / Лицензия pb.wtf

На пятьдесят оттенков темнее через торрент pb.wtf

Размер: 30.19 GB | Добавлен: 3 года 6 мес. назад | Торрент скачан:33 раза
Скачать  

26-05-2017 13:32 На пятьдесят оттенков темнее Скачать торрент  

Информация о фильме

Название: На пятьдесят оттенков темнее
Оригинальное название: Fifty Shades Darker
Год выхода: 2017
Жанр: Драма, мелодрама
Страна: США
Студия: Universal Pictures
Продолжительность: 02:11:28
Перевод: Дублированный | Лицензия

Режиссер: Джеймс Фоули

В ролях: Дакота Джонсон, Джейми Дорнан, Эрик Джонсон, Элоиза Мамфорд, Белла Хиткот, Рита Ора, Люк Граймс, Виктор Расук, Макс Мартини, Брюс Олтмен

О фильме:

Продолжение известной своей весьма селективной эротической направленностью экранизации романа Э.Л.Джеймс «Пятьдесят оттенков серого». Действующие лица все те же - приятного вида молодой любитель затейливо получаемых острых ощущений, обремененный ношей миллиардного состояния и юная, некогда романтично настроенная барышня. Однако расстановка силовых позиций в сформировавшейся паре медленно, но верно движется в сторону триллера: отношения между Анастейшей и Кристианом обостряются, когда в поле зрения появляются бывшие любовницы миллиардера — опытная и самоуверенная Элена (Ким Бейсингер) и крайне эмоциональная Лейла (Белла Хиткот). Итак, многогранный своими оттенками четырехугольник, психологические демоны Кристиана и неукротимая ревность Анастейши во второй части киноромана



Качество: BDRemux 1080p
Видео: MPEG-4 AVC, 1920x1080, 27.5 Mbit/s, 23.976 fps
Аудио #01: 48 kHz, AC3, 5.1, 448 Kbps | Дублированный | RUS |
Аудио #02: 48 kHz, DTS-X, 7.1, 4952 Kbps | Оригинал | ENG |
General

Unique ID : 226883222620708760549188516162561510810 (0xAAB01E86043AD1478E3C869B005A0D9A)

Complete name : F:VideoFifty.Shades.Darker.2017.UNRATED.Lic.BDREMUX.1080p.ExKinoRay.mkv

Format : Matroska

Format version : Version 4 / Version 2

File size : 30.2 GiB

Duration : 2 h 11 min

Overall bit rate mode : Variable

Overall bit rate : 32.9 Mb/s

Encoded date : UTC 2017-05-26 12:34:03

Writing application : mkvmerge v12.0.0 ('Trust / Lust') 64bit

Writing library : libebml v1.3.4 + libmatroska v1.4.5

Video

ID : 1

Format : AVC

Format/Info : Advanced Video Codec

Format profile : High@L4.1

Format settings, CABAC : Yes

Format settings, ReFrames : 4 frames

Codec ID : V_MPEG4/ISO/AVC

Duration : 2 h 11 min

Bit rate mode : Variable

Bit rate : 27.5 Mb/s

Maximum bit rate : 35.0 Mb/s

Width : 1 920 pixels

Height : 1 080 pixels

Display aspect ratio : 16:9

Frame rate mode : Constant

Frame rate : 23.976 (24000/1001) FPS

Color space : YUV

Chroma subsampling : 4:2:0

Bit depth : 8 bits

Scan type : Progressive

Bits/(Pixel*Frame) : 0.552

Stream size : 25.2 GiB (84%)

Language : English

Default : Yes

Forced : No

Audio #1

ID : 2

Format : AC-3

Format/Info : Audio Coding 3

Format settings, Endianness : Big

Codec ID : A_AC3

Duration : 2 h 11 min

Bit rate mode : Constant

Bit rate : 448 kb/s

Channel(s) : 6 channels

Channel positions : Front: L C R, Side: L R, LFE

Sampling rate : 48.0 kHz

Frame rate : 31.250 FPS (1536 spf)

Bit depth : 16 bits

Compression mode : Lossy

Stream size : 421 MiB (1%)

Title : Dub [iTunes]

Language : Russian

Service kind : Complete Main

Default : Yes

Forced : No

Audio #2

ID : 3

Format : DTS

Format/Info : Digital Theater Systems

Format profile : X / MA / Core

Mode : 16

Format settings, Endianness : Big

Codec ID : A_DTS

Duration : 2 h 11 min

Bit rate mode : Variable / Variable / Constant

Bit rate : 4 952 kb/s / 4 952 kb/s / 1 509 kb/s

Channel(s) : Object Based / 8 channels / 6 channels

Channel positions : Object Based / Front: L C R, Side: L R, Back: L R, LFE / Front: L C R, Side: L R, LFE

Sampling rate : / 48.0 kHz / 48.0 kHz

Frame rate : 93.750 FPS (512 spf)

Bit depth : / 24 bits / 24 bits

Compression mode : / Lossless / Lossy

Stream size : 4.55 GiB (15%)

Title : Original

Language : English

Default : No

Forced : No

Menu

00:00:00.000 : en:00:00:00.000

00:05:47.722 : en:00:05:47.722

00:13:14.460 : en:00:13:14.460

00:18:18.055 : en:00:18:18.055

00:24:45.359 : en:00:24:45.359

00:29:19.675 : en:00:29:19.675

00:37:25.201 : en:00:37:25.201

00:44:31.794 : en:00:44:31.794

00:50:22.394 : en:00:50:22.394

00:57:58.058 : en:00:57:58.058

01:06:01.958 : en:01:06:01.958

01:11:54.936 : en:01:11:54.936

01:24:49.876 : en:01:24:49.876

01:30:39.851 : en:01:30:39.851

01:35:40.651 : en:01:35:40.651

01:41:00.221 : en:01:41:00.221

01:48:53.735 : en:01:48:53.735

01:55:57.701 : en:01:55:57.701

02:01:38.374 : en:02:01:38.374

02:05:32.149 : en:02:05:32.149
скриншот  скриншот  скриншот  
Релиз от: Автор релиза:

pb.wtf



Скачать На пятьдесят оттенков темнее через торрент http://s019.radikal.ru/i635/1705/c3/ea94f8e5f962.jpg Скачать фильм На пятьдесят оттенков темнее через торрент бесплантно в хорошем качестве О фильме:Продолжение известной своей весьма селективной эротической направленностью экранизации романа Э.Л.Джеймс «Пятьдесят оттенков ... 10 10 3
Info! Золотая раздача, скачанное не засчитывается.
Торрент: Зарегистрирован [2017-05-26 13:32] · скачан: 33 раз
Статус: √ проверено
Размер: 30.19 GB
Как cкачать? Как скачать На пятьдесят оттенков темнее через торрент | qTorrent

% Раздел Тема Автор DL S | L
Ultra HD (UHD: 2K, 4K, 8K) — видео сверхвысокой чёткости [ 40.92 GB ] На пятьдесят оттенков темнее / Fifty Shades Darker [2017 UHD BDRemux 2160p] DUB [Расширенная версия] [] bober100 Скачать
1 | 0
Фильмы (Blu-ray, BD-Remux, HDDVD) [ 43.22 GB ] На пятьдесят оттенков темнее / Fifty Shades Darker [2017 Blu-ray CEE 1080p] DUB [Театральная/расширенная версия] [] bober100 Скачать
1 | 0
Фильмы [HD 720p, 1080p] (Хороший звук DUB, MVO) [ 11.9 GB ] На пятьдесят оттенков темнее / Fifty Shades Darker [2017 BDRip 1080p] [Расширенная версия] - [] -Lexx- Скачать
1 | 0
Фильмы [HD 720p, 1080p] (Хороший звук DUB, MVO) [ 6.11 GB ] На пятьдесят оттенков темнее / Fifty Shades Darker [2017 BDRip 720p] [Расширенная версия] - [] -Lexx- Скачать
1 | 0
Фильмы 2017 [DVDrip, WEB-DLRip, HDrip] (DUB, MVO) [ 2.18 GB ] На пятьдесят оттенков темнее / Fifty Shades Darker [2017 BDRip] [Расширенная версия] DUB [ BD CEE ] bober100 Скачать
1 | 0
Фильмы 2017 [DVDrip, WEB-DLRip, HDrip] (DUB, MVO) [ 2.26 GB ] На пятьдесят оттенков темнее / Fifty Shades Darker [2017 BDRip-AVC - ] Расширенная версия - ExKinoRay Enigma2010 Скачать
1 | 0

28-11-2019 20:33  

Отключить всю рекламу на сайте

01-06-2017 07:59 На пятьдесят оттенков темнее Скачать торрент  

грешно 30 гектар отдавать без золотишка pb.wtf



    Дорогой пользователь! Огромная просьба, поблагодарите релизера, оцените раздачу и оставьте свои комментарий, если Вы скачали На пятьдесят оттенков темнее через торрент бесплатно! Внесите свою лепту в развитие PiratBit!
    Комментировать посты могут только пользователи прошедшие не сложную регистрацию
    Показать сообщения:    

    На пятьдесят оттенков темнее через торрент
    Скачать бесплатно На пятьдесят оттенков темнее
    На пятьдесят оттенков темнее скачать торрент
    На пятьдесят оттенков темнее смотреть онлайн
    Cкачать фильм На пятьдесят оттенков темнее бесплатно
    На пятьдесят оттенков темнее скачать торрент в хорошем качестве
    На пятьдесят оттенков темнее смотреть онлайн бесплатно в хорошем качестве


    Вы не можете начинать темы
    Вы не можете отвечать на сообщения
    Вы не можете редактировать свои сообщения
    Вы не можете удалять свои сообщения
    Вы не можете голосовать в опросах
    Вы не можете прикреплять файлы к сообщениям
    Вы можете скачивать файлы