2 сезон

iTunes

MVO

1

2 сезон

iTunes

iTunes

1 сезон

RePack

30

Ultimate

ВАЖНО

ИГРА 18+

pack

RePack

MK11
pack

Легкие деньги

RePack

jed

RePack

fifa19

RePack

RDR2

RePack

NEED FOR SPEED™ PAYBACK

4 сезон

9 сезон

Бесстыжие 9 сезон

Все сериалы

все сериалы на PB.wtf

RePack

FAR CRY 5

Anonymous, добрый вечер, мы не успеваем собрать деньги на оплату серверов за декабрь и январь, помогите нам пожалуйста в это трудное время. В качестве благодарности мы отключим Вам всю рекламу на сайте (укажите свой ник в строку Ваше имя)!

×
  
Magnet ссылка

Варкрафт в 3D / Warcraft in 3D (Дункан Джонс) [2016 г., Фэнтези, Боевик, Приключения, BDRip 1080p, Дубляж Лицензия] Анаглиф (Дюбуа) pb.wtf

Варкрафт в 3D через торрент pb.wtf

Размер: 7.84 GB | Добавлен: 3 года 7 мес. назад | Торрент скачан:150 раз
Скачать  

26-05-2017 15:06 Варкрафт в 3D Скачать торрент  

Варкрафт в 3D / Warcraft in 3D
Год выпуска: 2016
Страна: Китай, Канада, Япония, США
Жанр: Фэнтези, Боевик, Приключения
Продолжительность: 02:03:08
Перевод: Дубляж Лицензия
Субтитры: Русские, украинские, английские

Режиссер: Дункан Джонс

Бюджет: $160 000 000
Премьера в мире: 24 мая 2016 (26 мая 2016)

В ролях: Трэвис Фиммел, Пола Пэттон, Бен Фостер, Доминик Купер, Тоби Кеббелл, Бен Шнетцер, Роберт Казински, Клэнси Браун, Дэниэл Ву, Рут Негга

Описание: Веками магия и неприступные стены защищали людей от любых напастей. Но древнее зло, побежденное и забытое тысячелетия назад, пробудилось.
В самом сердце королевства открылся темный портал, и раса невиданных существ наводнила земли Азерота. Так начались события, призванные навсегда изменить судьбу этого мира.

Доп. информация: Формат 3D: Анаглиф (Дюбуа)



Качество: BDRip 1080p
Формат: MKV
Видео кодек: H.264
Аудио кодек: AC3
Видео: AVC, 1920x1080 (16:9), 7641 kbps, 23,976 fps, 0.154 bpp
Аудио#1: Русский / AC3 / 48 KHz / 5.1 ch / 640 Kbps (Дубляж - BD CEE)
Аудио#2: Украинский / AC3 / 48 KHz / 2 ch / 192 Kbps (Дубляж - Line) [моно] (последние 2 минуты на финальных титрах обрезана музыка)
Аудио#3: Английский / AC3 / 48 KHz / 5.1 ch / 640 Kbps (Original - BD 3D)



скриншот   скриншот   скриншот   скриншот   скриншот  
x264 [info]: frame I:1706 Avg QP:11.43 size:240503
x264 [info]: frame P:47495 Avg QP:15.57 size: 76938
x264 [info]: frame B:127935 Avg QP:19.16 size: 23391
x264 [info]: consecutive B-frames: 3.4% 3.9% 12.3% 44.6% 35.8%


Общее
Уникальный идентификатор : 191081506881391199061178329137608479220 (0x8FC0F5A7D4C8BEB293E737AEA47551F4)
Полное имя : E:\Warcraft(2016)3D(Anaglyph_Dubois).mkv
Формат : Matroska
Версия формата : Version 4 / Version 2
Размер файла : 7,84 Гбайт
Продолжительность : 2 ч. 3 м.
Общий поток : 9116 Кбит/сек
Название фильма : Варкрафт / Warcraft (2016) в 3Д (Anaglyph_Dubois)
Дата кодирования : UTC 2017-05-26 14:17:18
Программа кодирования : mkvmerge v9.1.0 ('Little Earthquakes') 64bit
Библиотека кодирования : libebml v1.3.3 + libmatroska v1.4.4

Видео
Идентификатор : 1
Формат : AVC
Формат/Информация : Advanced Video Codec
Профиль формата : High@L4.1
MultiView_Count : 2
MultiView_Layout : Anaglyph (cyan/red)
Параметр CABAC формата : Да
Параметр ReFrames формата : 4 кадра
Идентификатор кодека : V_MPEG4/ISO/AVC
Продолжительность : 2 ч. 3 м.
Битрейт : 7641 Кбит/сек
Ширина : 1920 пикселей
Высота : 1080 пикселей
Соотношение сторон : 16:9
Режим частоты кадров : Постоянный
Частота кадров : 23,976 кадра/сек
Цветовое пространство : YUV
Субдискретизация насыщенности : 4:2:0
Битовая глубина : 8 бит
Тип развёртки : Прогрессивная
Бит/(Пиксели*Кадры) : 0.154
Размер потока : 6,57 Гбайт (84%)
Заголовок : slaventi-69 ( R.G. HD-Films ) 3Д (Anaglyph_Dubois)
Библиотека кодирования : x264 core 146 r2538 121396c
Настройки программы : cabac=1 / ref=4 / deblock=1:-3:-3 / analyse=0x3:0x113 / me=umh / subme=9 / psy=1 / psy_rd=1.00:0.00 / mixed_ref=1 / me_range=24 / chroma_me=1 / trellis=2 / 8x8dct=1 / cqm=0 / deadzone=21,11 / fast_pskip=1 / chroma_qp_offset=-2 / threads=8 / lookahead_threads=1 / sliced_threads=0 / nr=0 / decimate=1 / interlaced=0 / bluray_compat=0 / constrained_intra=0 / bframes=4 / b_pyramid=2 / b_adapt=2 / b_bias=0 / direct=1 / weightb=1 / open_gop=0 / weightp=2 / keyint=250 / keyint_min=23 / scenecut=40 / intra_refresh=0 / rc_lookahead=50 / rc=crf / mbtree=1 / crf=18.0 / qcomp=0.60 / qpmin=0 / qpmax=69 / qpstep=4 / vbv_maxrate=14000 / vbv_bufsize=14000 / crf_max=0.0 / nal_hrd=none / filler=0 / ip_ratio=1.40 / aq=1:1.00
Язык : English
Default : Да
Forced : Нет

Аудио #1
Идентификатор : 2
Формат : AC-3
Формат/Информация : Audio Coding 3
Расширение режима : CM (complete main)
Параметр Endianness формата : Big
Идентификатор кодека : A_AC3
Продолжительность : 2 ч. 3 м.
Вид битрейта : Постоянный
Битрейт : 640 Кбит/сек
Каналы : 6 каналов
Расположение каналов : Front: L C R, Side: L R, LFE
Частота : 48,0 КГц
Частота кадров : 31,250 кадров/сек (1536 spf)
Метод сжатия : С потерями
Размер потока : 564 Мбайт (7%)
Заголовок : Дубляж - BD CEE
Язык : Russian
Default : Да
Forced : Нет

Аудио #2
Идентификатор : 3
Формат : AC-3
Формат/Информация : Audio Coding 3
Расширение режима : CM (complete main)
Параметр Endianness формата : Big
Идентификатор кодека : A_AC3
Продолжительность : 2 ч. 3 м.
Вид битрейта : Постоянный
Битрейт : 192 Кбит/сек
Каналы : 2 канала
Расположение каналов : Front: L R
Частота : 48,0 КГц
Частота кадров : 31,250 кадров/сек (1536 spf)
Метод сжатия : С потерями
Размер потока : 169 Мбайт (2%)
Заголовок : Дубляж - Line (последние 2 минуты титров без музыки)
Язык : Ukrainian
Default : Нет
Forced : Нет

Аудио #3
Идентификатор : 4
Формат : AC-3
Формат/Информация : Audio Coding 3
Расширение режима : CM (complete main)
Параметр Endianness формата : Big
Идентификатор кодека : A_AC3
Продолжительность : 2 ч. 3 м.
Вид битрейта : Постоянный
Битрейт : 640 Кбит/сек
Каналы : 6 каналов
Расположение каналов : Front: L C R, Side: L R, LFE
Частота : 48,0 КГц
Частота кадров : 31,250 кадров/сек (1536 spf)
Метод сжатия : С потерями
Размер потока : 564 Мбайт (7%)
Заголовок : Original - BD 3D
Язык : English
Default : Нет
Forced : Нет

Текст #1
Идентификатор : 5
Формат : UTF-8
Идентификатор кодека : S_TEXT/UTF8
Идентификатор кодека/Информация : UTF-8 Plain Text
Продолжительность : 1 ч. 49 м.
Битрейт : 0 бит/сек
Count of elements : 12
Размер потока : 385 байт (0%)
Заголовок : Форсированные (редакция Ash61)
Язык : Russian
Default : Да
Forced : Нет

Текст #2
Идентификатор : 6
Формат : UTF-8
Идентификатор кодека : S_TEXT/UTF8
Идентификатор кодека/Информация : UTF-8 Plain Text
Продолжительность : 2 ч. 1 м.
Битрейт : 45 бит/сек
Count of elements : 1209
Размер потока : 40,4 Кбайт (0%)
Заголовок : Полные (BD CEE)
Язык : Russian
Default : Нет
Forced : Нет

Текст #3
Идентификатор : 7
Формат : UTF-8
Идентификатор кодека : S_TEXT/UTF8
Идентификатор кодека/Информация : UTF-8 Plain Text
Продолжительность : 1 ч. 49 м.
Битрейт : 0 бит/сек
Count of elements : 7
Размер потока : 245 байт (0%)
Заголовок : Форсированные (Ash61)
Язык : Ukrainian
Default : Нет
Forced : Нет

Текст #4
Идентификатор : 8
Формат : UTF-8
Идентификатор кодека : S_TEXT/UTF8
Идентификатор кодека/Информация : UTF-8 Plain Text
Продолжительность : 2 ч. 1 м.
Битрейт : 42 бит/сек
Count of elements : 1209
Размер потока : 38,2 Кбайт (0%)
Заголовок : Полные (BD CEE)
Язык : Ukrainian
Default : Нет
Forced : Нет

Текст #5
Идентификатор : 9
Формат : UTF-8
Идентификатор кодека : S_TEXT/UTF8
Идентификатор кодека/Информация : UTF-8 Plain Text
Продолжительность : 1 ч. 53 м.
Битрейт : 41 бит/сек
Count of elements : 1393
Размер потока : 34,8 Кбайт (0%)
Заголовок : SDH
Язык : English
Default : Нет
Forced : Нет

Меню
00:00:00.000 : :1
00:09:26.481 : :2
00:15:49.405 : :3
00:22:36.145 : :4
00:29:16.171 : :5
00:38:43.320 : :6
00:46:44.092 : :7
00:53:02.679 : :8
00:56:17.331 : :9
01:02:43.925 : :10
01:07:48.313 : :11
01:12:24.547 : :12
01:17:13.045 : :13
01:22:45.668 : :14
01:26:32.145 : :15
01:32:29.668 : :16
01:40:25.101 : :17
01:47:38.118 : :18
01:51:12.832 : :19
01:53:58.832 : :20

pb.wtf



Скачать Варкрафт в 3D через торрент http://i85.fastpic.ru/big/2016/0911/76/f22699fcfc4702c5f102c95ff48ab076.png Скачать фильм Варкрафт в 3D через торрент бесплантно в хорошем качестве Описание: Веками магия и неприступные стены защищали людей от любых напастей. Но древнее зло, побежденное и забытое тысячелетия назад, ... 10 10 5
Торрент: Зарегистрирован [2017-05-26 15:06] · скачан: 150 раз
Статус: √ проверено
Размер: 7.84 GB
Как cкачать? Как скачать Варкрафт в 3D через торрент | UTorrent

28-11-2019 20:33  

Отключить всю рекламу на сайте

    Дорогой пользователь! Огромная просьба, поблагодарите релизера, оцените раздачу и оставьте свои комментарий, если Вы скачали Варкрафт в 3D через торрент бесплатно! Внесите свою лепту в развитие PiratBit!
    Комментировать посты могут только пользователи прошедшие не сложную регистрацию
    Показать сообщения:    

    Варкрафт в 3D через торрент
    Скачать бесплатно Варкрафт в 3D
    Варкрафт в 3D скачать торрент
    Варкрафт в 3D смотреть онлайн
    Cкачать фильм Варкрафт в 3D бесплатно
    Варкрафт в 3D скачать торрент в хорошем качестве
    Варкрафт в 3D смотреть онлайн бесплатно в хорошем качестве


    Вы не можете начинать темы
    Вы не можете отвечать на сообщения
    Вы не можете редактировать свои сообщения
    Вы не можете удалять свои сообщения
    Вы не можете голосовать в опросах
    Вы не можете прикреплять файлы к сообщениям
    Вы можете скачивать файлы