2 сезон

iTunes

MVO

1

2 сезон

iTunes

iTunes

1 сезон

RePack

30

Новинка

ВАЖНО

ИГРА 18+

pack

RePack

MK11
pack

Легкие деньги

RePack

jed

RePack

fifa19

RePack

RDR2

RePack

NEED FOR SPEED™ PAYBACK

4 сезон

9 сезон

Бесстыжие 9 сезон

Все сериалы

все сериалы на PB.wtf

RePack

FAR CRY 5

Anonymous, доброй ночи, мы не успеваем собрать деньги на оплату серверов за декабрь и январь, помогите нам пожалуйста в это трудное время. В качестве благодарности мы отключим Вам всю рекламу на сайте (укажите свой ник в строку Ваше имя)!

×
  
Magnet ссылка

На пятьдесят оттенков темнее / Fifty Shades Darker (Джеймс Фоули) [2017, драма, мелодрама, BDRip-AVC] [Театральная версия] DUB [Лицензия BD CEE] pb.wtf

На пятьдесят оттенков темнее через торрент pb.wtf

Размер: 2.19 GB | Добавлен: 3 года 7 мес. назад | Торрент скачан:246 раз
Скачать  

27-05-2017 04:38 На пятьдесят оттенков темнее Скачать торрент  

На пятьдесят оттенков темнее / Fifty Shades Darker
[Театральная версия]
Год выпуска: 2017
Страна: США
Жанр: драма, мелодрама
Продолжительность: 01:57:48
Перевод: Дубляж [Лицензия BD CEE]
Субтитры: Русские, английские

Режиссер: Джеймс Фоули

rating

В ролях:

Дакота Джонсон, Джейми Дорнан, Эрик Джонсон, Элоиза Мамфорд, Белла Хиткот, Рита Ора, Люк Граймс, Виктор Расук, Макс Мартини, Брюс Олтмен

Описание:

Продолжение известной своей весьма селективной эротической направленностью экранизации романа Э.Л.Джеймс «Пятьдесят оттенков серого». Действующие лица все те же - приятного вида молодой любитель затейливо получаемых острых ощущений, обремененный ношей миллиардного состояния и юная, некогда романтично настроенная барышня. Однако расстановка силовых позиций в сформировавшейся паре медленно, но верно движется в сторону триллера: отношения между Анастейшей и Кристианом обостряются, когда в поле зрения появляются бывшие любовницы миллиардера — опытная и самоуверенная Элена (Ким Бейсингер) и крайне эмоциональная Лейла (Белла Хиткот). Итак, многогранный своими оттенками четырехугольник, психологические демоны Кристиана и неукротимая ревность Анастейши во второй части киноромана

Качество: BDRip-AVC
Формат: MKV
Видео кодек: H.264
Аудио кодек: AC3

Видео: 1024x426 (2.40:1), 23.976 fps, AVC MPEG-4 (x264), High@L4.1, ~ 1760 kbps avg, 0.168 bit/pixel
Аудио#1: Русский: 48 kHz, AC3 Dolby Digital, 3/2 (L,C,R,l,r) + LFE ch, ~448.00 kbps avg [Профессиональный (полное дублирование), Лицензия]
Аудио#2: Английский: 48 kHz, AC3 Dolby Digital, 3/2 (L,C,R,l,r) + LFE ch, ~448.00 kbps avg [Оригинал]
скриншот   скриншот   скриншот   скриншот  

Общее
Уникальный идентификатор : 182667670302905450138588686825935224718 (0x896C837BFF07D525A36D119F81FA3F8E)
Полное имя : D:Fifty.Shades.Darker.2017.Theatrical.Cut.BDRip(AVC).OlLanDGroup.mkv
Формат : Matroska
Версия формата : Version 2
Размер файла : 2,19 Гбайт
Продолжительность : 1 ч. 57 м.
Общий поток : 2657 Кбит/сек
Название фильма : Fifty.Shades.Darker.2017 #TorpedoUK#
Дата кодирования : UTC 2017-05-27 02:34:27
Программа кодирования : mkvmerge v7.8.0 ('River Man') 32bit built on Apr 3 2015 12:11:22
Библиотека кодирования : libebml v1.3.1 + libmatroska v1.4.2

Видео
Идентификатор : 1
Формат : AVC
Формат/Информация : Advanced Video Codec
Профиль формата : High@L4.1
Параметр CABAC формата : Да
Параметр ReFrames формата : 10 кадров
Идентификатор кодека : V_MPEG4/ISO/AVC
Продолжительность : 1 ч. 57 м.
Битрейт : 1760 Кбит/сек
Ширина : 1024 пикселя
Высота : 426 пикселей
Соотношение сторон : 2,40:1
Режим частоты кадров : Постоянный
Частота кадров : 23,976 (24000/1001) кадра/сек
Цветовое пространство : YUV
Субдискретизация насыщенности : 4:2:0
Битовая глубина : 8 бит
Тип развёртки : Прогрессивная
Бит/(Пиксели*Кадры) : 0.168
Размер потока : 1,41 Гбайт (64%)
Библиотека кодирования : x264 core 146 r2538 121396c
Настройки программы : cabac=1 / ref=10 / deblock=1:-3:-3 / analyse=0x3:0x133 / me=umh / subme=11 / psy=1 / psy_rd=1.00:0.07 / mixed_ref=1 / me_range=48 / chroma_me=1 / trellis=2 / 8x8dct=1 / cqm=0 / deadzone=21,11 / fast_pskip=0 / chroma_qp_offset=-3 / threads=6 / lookahead_threads=1 / sliced_threads=0 / nr=0 / decimate=0 / interlaced=0 / bluray_compat=0 / constrained_intra=0 / bframes=10 / b_pyramid=2 / b_adapt=2 / b_bias=0 / direct=3 / weightb=1 / open_gop=0 / weightp=2 / keyint=240 / keyint_min=23 / scenecut=40 / intra_refresh=0 / rc_lookahead=40 / rc=2pass / mbtree=0 / bitrate=1760 / ratetol=1.0 / qcomp=0.60 / qpmin=0 / qpmax=69 / qpstep=4 / cplxblur=20.0 / qblur=0.5 / vbv_maxrate=50000 / vbv_bufsize=62500 / nal_hrd=none / filler=0 / ip_ratio=1.40 / pb_ratio=1.30 / aq=1:1.00
Язык : English
Default : Да
Forced : Нет

Аудио #1
Идентификатор : 2
Формат : AC-3
Формат/Информация : Audio Coding 3
Расширение режима : CM (complete main)
Параметр Endianness формата : Big
Идентификатор кодека : A_AC3
Продолжительность : 1 ч. 57 м.
Вид битрейта : Постоянный
Битрейт : 448 Кбит/сек
Каналы : 6 каналов
Расположение каналов : Front: L C R, Side: L R, LFE
Частота : 48,0 КГц
Частота кадров : 31,250 кадров/сек (1536 spf)
Битовая глубина : 16 бит
Метод сжатия : С потерями
Размер потока : 377 Мбайт (17%)
Заголовок : License
Язык : Russian
Default : Да
Forced : Нет

Аудио #2
Идентификатор : 3
Формат : AC-3
Формат/Информация : Audio Coding 3
Расширение режима : CM (complete main)
Параметр Endianness формата : Big
Идентификатор кодека : A_AC3
Продолжительность : 1 ч. 57 м.
Вид битрейта : Постоянный
Битрейт : 448 Кбит/сек
Каналы : 6 каналов
Расположение каналов : Front: L C R, Side: L R, LFE
Частота : 48,0 КГц
Частота кадров : 31,250 кадров/сек (1536 spf)
Битовая глубина : 16 бит
Метод сжатия : С потерями
Размер потока : 377 Мбайт (17%)
Заголовок : Original
Язык : English
Default : Нет
Forced : Нет

Текст #1
Идентификатор : 4
Формат : UTF-8
Идентификатор кодека : S_TEXT/UTF8
Идентификатор кодека/Информация : UTF-8 Plain Text
Заголовок : Forced
Язык : Russian
Default : Да
Forced : Нет

Текст #2
Идентификатор : 5
Формат : UTF-8
Идентификатор кодека : S_TEXT/UTF8
Идентификатор кодека/Информация : UTF-8 Plain Text
Заголовок : Full
Язык : Russian
Default : Нет
Forced : Нет

Текст #3
Идентификатор : 6
Формат : UTF-8
Идентификатор кодека : S_TEXT/UTF8
Идентификатор кодека/Информация : UTF-8 Plain Text
Заголовок : Full
Язык : English
Default : Нет
Forced : Нет

Меню
00:00:00.000 : en:00:00:00.000
00:05:14.481 : en:00:05:14.481
00:11:29.272 : en:00:11:29.272
00:16:08.593 : en:00:16:08.593
00:22:35.896 : en:00:22:35.896
00:26:51.360 : en:00:26:51.360
00:34:56.886 : en:00:34:56.886
00:42:03.479 : en:00:42:03.479
00:47:54.079 : en:00:47:54.079
00:55:29.743 : en:00:55:29.743
01:03:22.298 : en:01:03:22.298
01:09:15.276 : en:01:09:15.276
01:16:03.142 : en:01:16:03.142
01:21:53.116 : en:01:21:53.116
01:26:53.917 : en:01:26:53.917
01:32:13.486 : en:01:32:13.486
01:37:45.443 : en:01:37:45.443
01:42:41.322 : en:01:42:41.322
01:47:57.971 : en:01:47:57.971
01:51:51.705 : en:01:51:51.705

pb.wtf



Скачать На пятьдесят оттенков темнее через торрент http://i90.fastpic.ru/big/2017/0428/1e/0cf5b57c95fe8ef6f52450300e3dab1e.jpg Скачать фильм На пятьдесят оттенков темнее через торрент бесплантно в хорошем качестве Описание: Продолжение известной своей весьма селективной эротической направленностью экранизации романа Э.Л.Джеймс «Пятьдесят оттенков ... 10 10 3
Торрент: Зарегистрирован [2017-05-27 04:38] · скачан: 246 раз
Статус: √ проверено
Размер: 2.19 GB
Как cкачать? Как скачать На пятьдесят оттенков темнее через торрент | UTorrent

% Раздел Тема Автор DL S | L
Ultra HD (UHD: 2K, 4K, 8K) — видео сверхвысокой чёткости [ 41.23 GB ] На пятьдесят оттенков темнее / Fifty Shades Darker [2017 UHD BDRemux 2160p] [] [Unrated Cut] sheker187 Скачать
1 | 0
Ultra HD (UHD: 2K, 4K, 8K) — видео сверхвысокой чёткости [ 40.92 GB ] На пятьдесят оттенков темнее / Fifty Shades Darker [2017 UHD BDRemux 2160p] DUB [Расширенная версия] [] bober100 Скачать
1 | 0
Фильмы (Blu-ray, BD-Remux, HDDVD) [ 43.22 GB ] На пятьдесят оттенков темнее / Fifty Shades Darker [2017 Blu-ray CEE 1080p] DUB [Театральная/расширенная версия] [] bober100 Скачать
1 | 0
Фильмы (Blu-ray, BD-Remux, HDDVD) [ 24.87 GB ] На пятьдесят оттенков темнее / Fifty Shades Darker [2017 BD Remux 1080p] DUB [Театральная версия] [] bober100 Скачать
1 | 0
Фильмы без перевода [ 29.8 GB ] На пятьдесят оттенков темнее / Fifty Shades Darker [2017 BD Remux] [Оригинал-ENG] smaster Скачать
1 | 0
Фильмы [HD 720p, 1080p] (Хороший звук DUB, MVO) [ 11.9 GB ] На пятьдесят оттенков темнее / Fifty Shades Darker [2017 BDRip 1080p] [Расширенная версия] - [] -Lexx- Скачать
1 | 0
Фильмы (Blu-ray, BD-Remux, HDDVD) [ 30.19 GB ] На пятьдесят оттенков темнее / Fifty Shades Darker [2017 BDRemux 1080p от ExKinoRay] Расширенная версия / Russian Mafia Скачать
1 | 0

28-11-2019 20:33  

Отключить всю рекламу на сайте

    Дорогой пользователь! Огромная просьба, поблагодарите релизера, оцените раздачу и оставьте свои комментарий, если Вы скачали На пятьдесят оттенков темнее через торрент бесплатно! Внесите свою лепту в развитие PiratBit!
    Комментировать посты могут только пользователи прошедшие не сложную регистрацию
    Показать сообщения:    

    На пятьдесят оттенков темнее через торрент
    Скачать бесплатно На пятьдесят оттенков темнее
    На пятьдесят оттенков темнее скачать торрент
    На пятьдесят оттенков темнее смотреть онлайн
    Cкачать фильм На пятьдесят оттенков темнее бесплатно
    На пятьдесят оттенков темнее скачать торрент в хорошем качестве
    На пятьдесят оттенков темнее смотреть онлайн бесплатно в хорошем качестве


    Вы не можете начинать темы
    Вы не можете отвечать на сообщения
    Вы не можете редактировать свои сообщения
    Вы не можете удалять свои сообщения
    Вы не можете голосовать в опросах
    Вы не можете прикреплять файлы к сообщениям
    Вы можете скачивать файлы