новый адрес
Мега распродажа FORZA HORIZON 4 ULTIMATE+ВСЕ DLC+ОНЛАЙН всего за 499р. 349 руб. (супер цена). Внимание количество ограничено!!!

iTunes

1+1

iTunes

мы

iTunes

1

iTunes

Чернобыль

iTunes

Ральф против интернета

Лицензия

ПШазам

Лицензия

Оно 2

Лицензия

30
pack

ВАЖНО

!!Акция!!

Alien_RageХит недели

RePack

Resident Evil 21

ИГРА 18+

pack

RePack

Metro:Exodus

!!Акция!!

Alien_Rage

RePack

fifa19

RePack

Assassins Creed: Odyssey

RePack

NEED FOR SPEED™ PAYBACK

3 сезон

9 сезон

Бесстыжие 9 сезон

Все сериалы

все сериалы на PB.wtf

RePack

FAR CRY 5
Ребята, катастрофически не хватает 1900р. для оплаты серверов за Октябрь (всвязи с блокировками трафик упал в 3 раза), 1-2р., выручайте.
  

Комиссар (Александр Аскольдов) [1967, СССР, драма, военный, DVDRip от AVP Studio] pb.wtf

Комиссар через торрент pb.wtf

Размер: 1.09 GB | Добавлен: 2 года 5 мес. назад | Торрент скачан:7 раз
Скачать  

27-05-2017 07:14 Комиссар Скачать торрент  

Комиссар
Страна: СССР
Производство: Киностудия им. М. Горького, Мосфильм

Жанр: драма, военный
Год выпуска: 1967
Продолжительность: 01:43:57

Перевод: Не требуется
Cубтитры: нет
Оригинальная аудиодорожка: русский

Режиссер: Александр Аскольдов

В ролях:
Нонна Мордюкова, Ролан Быков, Раиса Недашковская, Людмила Волынская, Василий Шукшин, Люба Кац, Павлик Левин, Дима Клейман, Марта Браткова, Игорь Фишман, Отар Коберидзе, Леонид Реутов, Виктор Шахов, Валерий Рыжаков...
Об актёрах подробней

Описание:
Фильм сделан в 1967 году по мотивам одного из ранних рассказов В. Гроссмана "В городе Бердычеве", который Максим Горький считал одним из самых лучших рассказов о гражданской войне.
Гражданская война. Красные части занимают маленький южный городок. В перерыве между боями комиссару Вавиловой надо было родить. Для этого она поселилась в многодетной еврейской семье мелкого ремесленника...
Единственный советский фильм,который был в широком прокате в США - прошел в 126 городах Америки.

Источник: DVD9 R5
Качество видео: DVDRip
Формат видео: AVI

Видео: 688x288 (2,40:1), 25 fps, XviD ~ 1047 kbps avg, 0.211 bit/pixel
Аудио: 48 kHz, Dolby Digital AC3 5.1, 448 kbps

Раздача от:
У фильма и режиссера трагичная судьба.
После обсуждения фильма на худсовете студии и массы замечаний режиссер все рекомендации учел, но картина не прошла высокие этажи инстанций. Народный суд Бабушкинского района Москвы, несмотря на показания свидетелей (Н. Мордюковой и Р. Быкова) в пользу "подсудимого", постановил - считать режиссера Аскольдова профнепригодным. Далее последовало увольнение, исключение из партии и, по настойчивому желанию секретаря Московского горкома партии тов. Гришина, выселение из Москвы за тунеядство.
Фильм снят с полки через двадцать лет во время МКФ в Москве (1987) и показан на ПРОКе. В прокат вышел - в 1987 году.
Общее
Полное имя : Komissar.1967.DVDRip_[New-team]_by_AVP_Studio.avi
Формат : AVI
Формат/Информация : Audio Video Interleave
Размер файла : 1,09 Гбайт
Продолжительность : 1 ч. 43 м.
Общий поток : 1504 Кбит/сек
Программа кодирования : VirtualDubMod 1.5.10.3 | www.virtualdub-fr.org || (build 2550/release)
Библиотека кодирования : VirtualDubMod build 2550/release

Видео
Идентификатор : 0
Формат : MPEG-4 Visual
Профиль формата : Advanced Simple@L5
Параметр BVOP формата : 1
Параметр QPel формата : Нет
Параметр GMC формата : Без точки перехода
Параметр матрицы формата : Выборочная
Идентификатор кодека : XVID
Идентификатор кодека/Подсказка : XviD
Продолжительность : 1 ч. 43 м.
Битрейт : 1047 Кбит/сек
Ширина : 688 пикселей
Высота : 288 пикселей
Соотношение сторон : 2,40:1
Частота кадров : 25,000 кадров/сек
Цветовое пространство : YUV
Субдискретизация насыщенности : 4:2:0
Битовая глубина : 8 бит
Тип развёртки : Прогрессивная
Метод сжатия : С потерями
Бит/(Пиксели*Кадры) : 0.211
Размер потока : 778 Мбайт (70%)
Библиотека кодирования : XviD 73

Аудио
Идентификатор : 1
Формат : AC-3
Формат/Информация : Audio Coding 3
Параметр Endianness формата : Big
Идентификатор кодека : 2000
Продолжительность : 1 ч. 43 м.
Вид битрейта : Постоянный
Битрейт : 448 Кбит/сек
Каналы : 6 каналов
Расположение каналов : Front: L C R, Side: L R, LFE
Частота : 48,0 КГц
Частота кадров : 31,250 кадров/сек (1536 spf)
Битовая глубина : 16 бит
Метод сжатия : С потерями
Размер потока : 333 Мбайт (30%)
Выравнивание : Разделение по промежуткам
Продолжительность промежутка : 40 мс. (1,00 видеокадр)
Время предзагрузки промежутка : 500 мс
pb.wtf



Скачать Комиссар через торрент http://s008.radikal.ru/i306/1705/a6/ae9d103e8452.png Скачать фильм Комиссар через торрент бесплантно в хорошем качестве Описание:Фильм сделан в 1967 году по мотивам одного из ранних рассказов В. Гроссмана "В городе Бердычеве", который Максим Горький считал ... 10 10 2
Info! Золотая раздача, скачанное не засчитывается.
Торрент: Зарегистрирован [2017-05-27 07:14] · скачан: 7 раз
Статус: √ проверено
Размер: 1.09 GB
Как cкачать? Как скачать Комиссар через торрент | qTorrent

% Раздел Тема Автор DL S | L
Любительское фото [ 414 MB ] Александра Комиссарова [2019 Формат: JPEG. от 403x604-2560x1920] Скорпион1976 Скачать
4 | 0
Наши сериалы [ 5.62 GB ] Комиссарша / Сезон: 1 / Серии: 1-8 из 8 [2017 Военный HDTVRip] bober100 Скачать
1 | 0
Наши сериалы [ 10.18 GB ] Комиссарша / Сезон: 1 / Серии: 1-8 из 8 [2017 Военный HDTVRip 720p] bober100 Скачать
1 | 0
Фильмы [HD 720p, 1080p] (Хороший звук DUB, MVO) [ 9.04 GB ] Признание комиссара полиции прокурору республики / Confessione di un commissario di polizia [1971 BDRip 1080p by msltel] DUB MVO msltel Скачать
1 | 0
Фильмы [HD 720p, 1080p] (Хороший звук DUB, MVO) [ 3.47 GB ] Признание комиссара полиции прокурору республики / Confessione di un commissario di polizia [1971 BDRip 720p by msltel] DUB MVO msltel Скачать
1 | 0
Кино СССР [ 744 MB ] Знакомьтесь Балуев! [1963 СССР SATRip-AVC от AVP Studio] AVP Studio Скачать
1 | 0
Кино СССР [ 745 MB ] Знакомьтесь Балуев! [1963 СССР SATRip от AVP Studio] AVP Studio Скачать
1 | 0


>> Регистрируемся здесь <<






Отзывы и комментарии о схеме читаем и пишем здесь: ---> Отзывы и комментарии о схеме

Новые благодарочки в телеграм довольных пользователей:
скриншот   скриншот   скриншот   скриншот   скриншот
    Дорогой пользователь! Огромная просьба, поблагодарите релизера, оцените раздачу и оставьте свои комментарий, если Вы скачали Комиссар через торрент бесплатно! Внесите свою лепту в развитие PiratBit!
    Комментировать посты могут только пользователи прошедшие не сложную регистрацию
    Показать сообщения:    

    Комиссар через торрент
    Скачать бесплатно Комиссар
    Комиссар скачать торрент
    Комиссар смотреть онлайн
    Cкачать фильм Комиссар бесплатно
    Комиссар скачать торрент в хорошем качестве
    Комиссар смотреть онлайн бесплатно в хорошем качестве


    Вы не можете начинать темы
    Вы не можете отвечать на сообщения
    Вы не можете редактировать свои сообщения
    Вы не можете удалять свои сообщения
    Вы не можете голосовать в опросах
    Вы не можете прикреплять файлы к сообщениям
    Вы можете скачивать файлы