Доктор Стрэндж

Лицензия

Добыча

MVO

Дом дракона

1 сезон

Тор

Лицензия

Мэверик

Лицензия

Там, где раки поют

MVO

Властелин колец

1 сезон

Ultimate

pack

Рекомендуем

30

Repack

ВАЖНО

ВАЖНО

Ghostwire

RePack

jed

RePack

nioh2

RePack

RDR2

RePack

NEED FOR SPEED™ PAYBACK

RePack

скачать торрент

Кинопоиск HD

Острые козырьки 6 сезон

6 сезон

FAR CRY 6

RePack

скачать торрент

Лицензия

скачать торрент

MVO

1

1 сезон

скачать торрент

1 сезон

скачать торрент

Лицензия

  

Любовь со всеми остановками / 1-2 серии из 2 (Ашот Кещян) [2017, мелодрама, WEB-DLRip]

Любовь со всеми остановками через торрент pb.wtf

Размер: 1.08 GB | Добавлен: 5 лет 4 мес. назад | Торрент скачан:98 раз
Смотреть онлайн | Скачать   

27-05-2017 08:21 Любовь со всеми остановками Скачать торрент  

Любовь со всеми остановками (1-2 серии из 2)
Год выпуска: 2017
Страна: Россия
Жанр: мелодрама
Продолжительность: 2 х ~ 00:45:00
Субтитры: отсутствуют

Режиссер: Ашот Кещян



В ролях:

Юрий Батурин, Анна Тараторкина, Виктория Маслова, Илья Алексеев, Максим Сапрыкин (II), Елизавета Кононова, Андрей Ушаков (IV), Сергей Колесников (II)

Описание:

Герои этой истории – Рита и Сергей, не искали похождений на стороне, они случайно познакомились в электричке и... возненавидели друг друга с первого взгляда, со второго они подружились, а с третьего, так уж получилось, влюбились... Бурный роман грозит разрушить их привычный мир и нанести душевные раны близким обоих героев. Неужели наши герои рискнут и ради новой страсти бросят свои прежние отношения? И стоит ли их интрижка такой высокой цены?

Качество: WEB-DLRip
Формат: AVI
Видео кодек: XviD
Аудио кодек: AC3

Видео: 720x400 (1.80:1), 25 fps, XviD build 73 ~1483 kbps avg, 0.205 bit/pixel
Аудио#1: 48 kHz, AC3 Dolby Digital, 2/0 (L,R) ch, ~192.00 kbps avg
скриншот   скриншот   скриншот   скриншот  

Общее
Полное имя : D:\Liubov.so.vsemi.ostanovkami.2017.WEB-DLRip.Files-x\01.Liubov.so.vsemi.ostanovkami.2017.WEB-DLRip.Files-x.avi
Формат : AVI
Формат/Информация : Audio Video Interleave
Размер файла : 551 Мбайт
Продолжительность : 45 м. 42 с.
Общий поток : 1685 Кбит/сек
Программа кодирования : VirtualDubMod 1.5.10.3 | www.virtualdub-fr.org || (build 2550/release)
Библиотека кодирования : VirtualDubMod build 2550/release

Видео
Идентификатор : 0
Формат : MPEG-4 Visual
Профиль формата : Advanced [email protected]
Параметр BVOP формата : 1
Параметр QPel формата : Нет
Параметр GMC формата : Без точки перехода
Параметр матрицы формата : Выборочная
Идентификатор кодека : XVID
Идентификатор кодека/Подсказка : XviD
Продолжительность : 45 м. 42 с.
Битрейт : 1483 Кбит/сек
Ширина : 720 пикселей
Высота : 400 пикселей
Соотношение сторон : 16:9
Частота кадров : 25,000 кадров/сек
Цветовое пространство : YUV
Субдискретизация насыщенности : 4:2:0
Битовая глубина : 8 бит
Тип развёртки : Прогрессивная
Метод сжатия : С потерями
Бит/(Пиксели*Кадры) : 0.206
Размер потока : 485 Мбайт (88%)
Библиотека кодирования : XviD 73

Аудио
Идентификатор : 1
Формат : AC-3
Формат/Информация : Audio Coding 3
Расширение режима : CM (complete main)
Параметр Endianness формата : Big
Идентификатор кодека : 2000
Продолжительность : 45 м. 42 с.
Вид битрейта : Постоянный
Битрейт : 192 Кбит/сек
Каналы : 2 канала
Расположение каналов : Front: L R
Частота : 48,0 КГц
Частота кадров : 31,250 кадров/сек (1536 spf)
Метод сжатия : С потерями
Размер потока : 62,8 Мбайт (11%)
Выравнивание : Разделение по промежуткам
Продолжительность промежутка : 40 мс. (1,00 видеокадр)
Время предзагрузки промежутка : 500 мс.




Скачать Любовь со всеми остановками через торрент http://rudb.org/img/2017_05/i59290cbb4ecf5.jpg Скачать, смотреть онлайн Любовь со всеми остановками бесплантно в хорошем качестве Описание: Герои этой истории – Рита и Сергей, не искали похождений на стороне, они случайно познакомились в электричке и... возненавидели ... 10 10 5
Торрент: Зарегистрирован [2017-05-27 08:21] · скачан: 98 раз
Статус: √ проверено
Размер: 1.08 GB
Как cкачать? Как скачать Любовь со всеми остановками через торрент | UTorrent

28-11-2019 20:33  


Отключить вcю реклaмy на сайте, в т.ч. и в плеере онлайн просмотра!

    Дорогой пользователь! Огромная просьба, поблагодарите релизера, оцените раздачу и оставьте свои комментарий, если Вы скачали Любовь со всеми остановками через торрент бесплатно!!
    Комментировать посты могут только пользователи прошедшие не сложную регистрацию
    Показать сообщения:    


    Любовь со всеми остановками через торрент
    Скачать бесплатно Любовь со всеми остановками
    Любовь со всеми остановками скачать торрент
    Любовь со всеми остановками смотреть онлайн
    Cкачать фильм Любовь со всеми остановками бесплатно
    Любовь со всеми остановками скачать торрент в хорошем качестве
    Любовь со всеми остановками смотреть онлайн бесплатно в хорошем качестве
    Вы не можете начинать темы
    Вы не можете отвечать на сообщения
    Вы не можете редактировать свои сообщения
    Вы не можете удалять свои сообщения
    Вы не можете голосовать в опросах
    Вы не можете прикреплять файлы к сообщениям
    Вы можете скачивать файлы