Доктор Стрэндж

Лицензия

Добыча

Дубляж

Уэнсдэй

1 сезон

Тор

Дубляж

В эфире

Дубляж

Там, где раки поют

MVO

Властелин колец

1 сезон

Deluxe

pack

Рекомендуем

30

Пиратка

ВАЖНО

ВАЖНО

Ghostwire

Пиратка

jed

RePack

nioh2

RePack

RDR2

RePack

NEED FOR SPEED™ PAYBACK

RePack

скачать торрент

Кинопоиск HD

Острые козырьки 6 сезон

6 сезон

FAR CRY 6

RePack

скачать торрент

Лицензия

скачать торрент

MVO

1

1 сезон

скачать торрент

1 сезон

скачать торрент

Лицензия

  

На пятьдесят оттенков темнее / Fifty Shades Darker (Джеймс Фоули) [2017, драма, мелодрама, BDRip 720p] [Расширенная версия] Дубляж - [Лицензия]

На пятьдесят оттенков темнее через торрент pb.wtf

Размер: 6.11 GB | Добавлен: 5 лет 6 мес. назад | Торрент скачан:218 раз
Смотреть онлайн | Скачать   

27-05-2017 08:56 На пятьдесят оттенков темнее Скачать торрент  

На пятьдесят оттенков темнее / Fifty Shades Darker
Расширенная версия

««Мир роскоши и соблазна ждёт вас»»

Год выпуска: 2017
Страна: США
Жанр: драма, мелодрама

Продолжительность: 02:11:28
Перевод: Дубляж - [Лицензия]
Режиссер: Джеймс Фоули
В ролях:

Дакота Джонсон (Anastasia Steele), Джейми Дорнан (Christian Grey), Эрик Джонсон (Jack Hyde), Элоиза Мамфорд (Kate Kavanagh), Белла Хиткот (Leila), Рита Ора (Mia Grey), Люк Граймс (Elliot Grey), Виктор Расук (Jose), Макс Мартини (Taylor), Брюс Олтмен (Jerry Roach), Ким Бейсингер (Elena Lincoln), Марша Гей Харден (Grace Trevelyan Grey)
Описание:
Пока Кристиан Грей борется со своими внутренними демонами, Анастейша Стил вынуждена противостоять гневу и зависти тех женщин, что были с Кристианом до нее.
Рейтинг:

MPAA: R - Лицам до 17 лет обязательно присутствие взрослого
Качество: BDRip 720p
Формат: MKV
Видео: AVC, 1280x534 (2.40:1), 4700 kbps, 23,976 fps, 0,287 bpp
Аудио №1: русский / AC3 / 5.1 / 48 kHz / 448 kbps / |Дубляж|
Аудио №2: английский / DTS / 5.1 / 48 kHz / 1509 kbps / 24 bit
Навигация по главам: есть
Релиз от:
General
Unique ID : 213720480357984468931716270289944764784 (0xA0C91139976CE994807AD317C07EE170)
Complete name : C:UsersbattiDesktopFifty.Shades.Darker.2017.UNRATED.Lic.BDRip.720p.ExKinoRay.mkv
Format : Matroska
Format version : Version 4 / Version 2
File size : 6.11 GiB
Duration : 2 h 11 min
Overall bit rate : 6 651 kb/s
Encoded date : UTC 2017-05-26 10:57:38
Writing application : mkvmerge v12.0.0 ('Trust / Lust') 64bit
Writing library : libebml v1.3.4 + libmatroska v1.4.5

Video
ID : 1
Format : AVC
Format/Info : Advanced Video Codec
Format profile : [email protected]
Format settings, CABAC : Yes
Format settings, ReFrames : 12 frames
Codec ID : V_MPEG4/ISO/AVC
Duration : 2 h 11 min
Bit rate : 4 700 kb/s
Width : 1 280 pixels
Height : 534 pixels
Display aspect ratio : 2.40:1
Frame rate mode : Constant
Frame rate : 23.976 (24000/1001) FPS
Color space : YUV
Chroma subsampling : 4:2:0
Bit depth : 8 bits
Scan type : Progressive
Bits/(Pixel*Frame) : 0.287
Stream size : 4.31 GiB (71%)
Writing library : x264 core 148 r2665kMod a01e339
Encoding settings : cabac=1 / ref=12 / deblock=1:-3:-3 / analyse=0x3:0x133 / me=umh / subme=11 / psy=1 / fade_compensate=0.00 / psy_rd=1.05:0.00 / mixed_ref=1 / me_range=32 / chroma_me=1 / trellis=2 / 8x8dct=1 / cqm=0 / deadzone=21,11 / fast_pskip=0 / chroma_qp_offset=-2 / threads=17 / lookahead_threads=2 / sliced_threads=0 / nr=0 / decimate=0 / interlaced=0 / bluray_compat=0 / constrained_intra=0 / fgo=0 / bframes=8 / b_pyramid=2 / b_adapt=2 / b_bias=0 / direct=3 / weightb=1 / open_gop=0 / weightp=2 / keyint=240 / keyint_min=24 / scenecut=40 / intra_refresh=0 / rc=2pass / mbtree=0 / bitrate=4700 / ratetol=1.0 / qcomp=0.70 / qpmin=0 / qpmax=69 / qpstep=4 / cplxblur=20.0 / qblur=0.5 / ip_ratio=1.20 / pb_ratio=1.20 / aq=3:0.85
Language : English
Default : Yes
Forced : No

Audio #1
ID : 2
Format : AC-3
Format/Info : Audio Coding 3
Format settings, Endianness : Big
Codec ID : A_AC3
Duration : 2 h 11 min
Bit rate mode : Constant
Bit rate : 448 kb/s
Channel(s) : 6 channels
Channel positions : Front: L C R, Side: L R, LFE
Sampling rate : 48.0 kHz
Frame rate : 31.250 FPS (1536 spf)
Bit depth : 16 bits
Compression mode : Lossy
Stream size : 421 MiB (7%)
Title : Дубляж [License]
Language : Russian
Service kind : Complete Main
Default : Yes
Forced : No

Audio #2
ID : 3
Format : DTS
Format/Info : Digital Theater Systems
Mode : 16
Format settings, Endianness : Big
Codec ID : A_DTS
Duration : 2 h 11 min
Bit rate mode : Constant
Bit rate : 1 509 kb/s
Channel(s) : 6 channels
Channel positions : Front: L C R, Side: L R, LFE
Sampling rate : 48.0 kHz
Frame rate : 93.750 FPS (512 spf)
Bit depth : 24 bits
Compression mode : Lossy
Stream size : 1.39 GiB (23%)
Title : Original
Language : English
Default : No
Forced : No

Menu
00:00:00.000 : en:00:00:00.000
00:05:47.722 : en:00:05:47.722
00:13:14.460 : en:00:13:14.460
00:18:18.055 : en:00:18:18.055
00:24:45.359 : en:00:24:45.359
00:29:19.675 : en:00:29:19.675
00:37:25.201 : en:00:37:25.201
00:44:31.794 : en:00:44:31.794
00:50:22.394 : en:00:50:22.394
00:57:58.058 : en:00:57:58.058
01:06:01.958 : en:01:06:01.958
01:11:54.936 : en:01:11:54.936
01:24:49.876 : en:01:24:49.876
01:30:39.851 : en:01:30:39.851
01:35:40.651 : en:01:35:40.651
01:41:00.221 : en:01:41:00.221
01:48:53.735 : en:01:48:53.735
01:55:57.701 : en:01:55:57.701
02:01:38.374 : en:02:01:38.374
02:05:32.149 : en:02:05:32.149



Скачать На пятьдесят оттенков темнее через торрент http://i6-imageban-ru.translate.goog/out/2017/05/27/bbd2585bf5e41fd7ed763aa31b46c0d4.jpg Скачать, смотреть онлайн На пятьдесят оттенков темнее бесплантно в хорошем качестве Описание: Пока Кристиан Грей борется со своими внутренними демонами, Анастейша Стил вынуждена противостоять гневу и зависти тех женщин, что ... 9 10 3
Торрент: Зарегистрирован [2017-05-27 08:56] · скачан: 218 раз
Статус: √ проверено
Размер: 6.11 GB
Как cкачать? Как скачать На пятьдесят оттенков темнее через торрент | UTorrent

% Раздел Тема Автор DL S | L
Ultra HD (UHD: 2K, 4K, 8K) [ 41.23 GB ] На пятьдесят оттенков темнее / Fifty Shades Darker | Лицензия | 2160p sheker187 Скачать
1 | 0
Ultra HD (UHD: 2K, 4K, 8K) [ 40.92 GB ] На пятьдесят оттенков темнее / Fifty Shades Darker | Лицензия | 2160p bober100 Скачать
1 | 0
Фильмы (Blu-ray, BD-Remux, HDDVD) [ 43.22 GB ] На пятьдесят оттенков темнее / Fifty Shades Darker | Лицензия | 1080p bober100 Скачать
1 | 0
Фильмы (Blu-ray, BD-Remux, HDDVD) [ 24.87 GB ] На пятьдесят оттенков темнее / Fifty Shades Darker | Лицензия | BD Remux 1080p bober100 Скачать
1 | 0
Фильмы без перевода [ 29.8 GB ] На пятьдесят оттенков темнее / Fifty Shades Darker | | BD Remux smaster Скачать
1 | 0
Фильмы [HD 720p, 1080p] (Хороший звук DUB, MVO) [ 11.9 GB ] На пятьдесят оттенков темнее / Fifty Shades Darker | Лицензия | 1080p -Lexx- Скачать
2 | 0
Фильмы (Blu-ray, BD-Remux, HDDVD) [ 30.19 GB ] На пятьдесят оттенков темнее / Fifty Shades Darker | Лицензия | 1080p от ExKinoRay Russian Mafia Скачать
1 | 0

28-11-2019 20:33  


Отключить вcю реклaмy на сайте, в т.ч. и в плеере онлайн просмотра!

    Дорогой пользователь! Огромная просьба, поблагодарите релизера, оцените раздачу и оставьте свои комментарий, если Вы скачали На пятьдесят оттенков темнее через торрент бесплатно!!
    Комментировать посты могут только пользователи прошедшие не сложную регистрацию
    Показать сообщения:    


    На пятьдесят оттенков темнее через торрент
    Скачать бесплатно На пятьдесят оттенков темнее
    На пятьдесят оттенков темнее скачать торрент
    На пятьдесят оттенков темнее смотреть онлайн
    Cкачать фильм На пятьдесят оттенков темнее бесплатно
    На пятьдесят оттенков темнее скачать торрент в хорошем качестве
    На пятьдесят оттенков темнее смотреть онлайн бесплатно в хорошем качестве
    Вы не можете начинать темы
    Вы не можете отвечать на сообщения
    Вы не можете редактировать свои сообщения
    Вы не можете удалять свои сообщения
    Вы не можете голосовать в опросах
    Вы не можете прикреплять файлы к сообщениям
    Вы можете скачивать файлы
    На пятьдесят оттенков темнее / Fifty Shades Darker [2017, драма, мелодрама, BDRip 720p] [Расширенная версия] Дубляж - [Лицензия] смотреть онлайн, скачать торрент picoco.icu