Присоединяйтесь к нам в Telegram!, здесь всегда актуальный адрес сайта, оперативная поддержка и многое другое!!

>

5.9

iTunes

7.4

iTunes

9.4

1 сезон

1

7.4

2 сезон

7.2

iTunes

7.3

1 сезон

13

6.1

iTunes

8.3

GOG

30

ULTIMATE

pack

9.9

Лицензия

ВАЖНО

ИГРА 18+

pack

7.3

RePack

MK11

7.7

RePack

jed

7.8

RePack

fifa19

8.5

RePack

RDR2

RePack

NEED FOR SPEED™ PAYBACK

5 сезон

9 сезон

Бесстыжие 9 сезон

Все сериалы

все сериалы на PB.wtf

RePack

FAR CRY 5

Anonymous, добрый вечер, мы катастрофически не успеваем собрать деньги на оплату серверов, помогите нам пожалуйста 5,10,15р., для нас важна любая помощь . В качестве благодарности мы отключим Вам всю рекламу на сайте (укажите свой ник в строку Ваше имя)!

×
  
Magnet ссылка

Сборник - видеоклипов [2017 г., Pop, WEBRip 1080p] pb.wtf

Сборник - видеоклипов через торрент pb.wtf

Размер: 749 MB | Добавлен: 4 года 6 мес. назад | Торрент скачан:244 раза
Смотреть онлайн Сборник - видеоклипов | Скачать    Ребята, помогите собрать деньги на оплату серверов!!!

28-05-2017 05:37 Сборник - видеоклипов Скачать торрент  

Сборник - видеоклипов
Год выпуска: 2017
Жанр: Pop
Продолжительность: 00:18:40
Качество:WEBRip 1080p
Формат: MPEG4
Видео кодек: AVC
Аудио кодек:AAC
Видео: MPEG4 AVC, 1920x1080, 25,000 fps, 5998 kbps
Аудио#1: AAC 44,1 kHz, 2 ch, 320 kbps

Трэклист:
1.Burak Yeter - Tuesday ft. Danelle Sandoval.
2.Dan Balan - Hold On Love.
3.Hotel 17 - Вдыхай.
4.Yanix, Obladaet - Когда гаснет свет.
5.YG ft. DJ Mustard - Pop It, Shake I.
Полное имя : Dan Balan - Hold On Love.mp4
Формат : MPEG-4
Профиль формата : Base Media / Version 2
Идентификатор кодека : mp42 (mp42/isom)
Размер файла : 180 Мбайт
Продолжительность : 3 м. 58 с.
Режим общего битрейта : Переменный
Общий поток : 6334 Кбит/сек
Дата кодирования : UTC 2017-05-27 10:30:19
Дата пометки : UTC 2017-05-27 10:30:19

Видео
Идентификатор : 1
Формат : AVC
Формат/Информация : Advanced Video Codec
Профиль формата : High@L4
Параметр CABAC формата : Да
Параметр ReFrames формата : 3 кадра
Параметр GOP формата : M=4, N=75
Идентификатор кодека : avc1
Идентификатор кодека/Информация : Advanced Video Coding
Продолжительность : 3 м. 58 с.
Продолжительность оригинала : 3 м. 58 с.
Вид битрейта : Переменный
Битрейт : 6010 Кбит/сек
Максимальный битрейт : 40,0 Мбит/сек
Ширина : 1920 пикселей
Высота : 1080 пикселей
Соотношение сторон : 16:9
Режим частоты кадров : Переменный
Частота кадров : 25,000 кадров/сек
Минимальная частота кадров : 12,500 кадров/сек
Максимальная частота кадров : 25,000 кадров/сек
Цветовое пространство : YUV
Субдискретизация насыщенности : 4:2:0
Битовая глубина : 8 бит
Тип развёртки : Прогрессивная
Бит/(Пиксели*Кадры) : 0.116
Размер потока : 171 Мбайт (95%)
Размер потока оригинала : 171 Мбайт (95%)
Язык : English
Дата кодирования : UTC 2017-05-27 10:30:19
Дата пометки : UTC 2017-05-27 10:30:19
mdhd_Duration : 238600

Аудио
Идентификатор : 2
Формат : AAC
Формат/Информация : Advanced Audio Codec
Профиль формата : LC
Идентификатор кодека : 40
Продолжительность : 3 м. 58 с.
Вид битрейта : Переменный
Битрейт : 320 Кбит/сек
Каналы : 2 канала
Расположение каналов : Front: L R
Частота : 44,1 КГц
Частота кадров : 43,066 кадра/сек (1024 spf)
Метод сжатия : С потерями
Размер потока : 9,07 Мбайт (5%)
Язык : English
Дата кодирования : UTC 2017-05-27 10:30:19
Дата пометки : UTC 2017-05-27 10:30:19
pb.wtf



Скачать Сборник - видеоклипов через торрент http://funkyimg.com/i/2tEJw.jpg Скачать, смотреть онлайн Сборник - видеоклипов [2017 г., Pop, WEBRip 1080p] бесплантно в хорошем качестве Трэклист:Burak Yeter - Tuesday ft. Danelle Sandoval.Dan Balan - Hold On Love.Hotel 17 - Вдыхай.Yanix, Obladaet - Когда гаснет ... 8.2 10 5
Торрент: Зарегистрирован [2017-05-28 05:37] · скачан: 244 раз
Статус: √ проверено
Размер: 749 MB
Как cкачать? Как скачать Сборник - видеоклипов через торрент | UTorrent

% Раздел Тема Автор DL S | L
Клипы [ 4.7 GB ] Ленинград - Сборник видеоклипов [34 шт.] [2017 Рок Панк-Рок Ска Ска-Панк WEBRip 1080p] bober100 Скачать
5 | 0
Клипы [ 47.38 GB ] Сборник видеоклипов от ©BSV Labs.™ / Часть:2 [2014 Поп Рок Ретро BDRip DVDRip TVRip SATRip] lug30 Скачать
2 | 2
Клипы [ 77.98 GB ] Сборник видеоклипов от ©BSV Labs.™ / Часть:1 [2014 Поп Рок Ретро BDRip DVDRip TVRip SATRip] lug30 Скачать
2 | 1
Клипы [ 2.2 GB ] Сборник видеоклипов - поп хиты 2 [2016 Pop WEBRip 1080p] overpower4dc Скачать
1 | 0
Клипы [ 1.29 GB ] Ленинград - Сборник видеоклипов [2016 Pop HDTVRip 1080p] overpower4dc Скачать
1 | 0
Клипы [ 3.49 GB ] Сборник видеоклипов - поп хиты [2016 Pop WEBRip 1080p] overpower4dc Скачать
1 | 0
Клипы [ 6.72 GB ] Сборник видеоклипов - поп хиты [2015 - 2016 Pop HDTVRip 1080p] overpower4dc Скачать
1 | 0

28-11-2019 20:33  

Отключить всю рекламу на сайте

    Дорогой пользователь! Огромная просьба, поблагодарите релизера, оцените раздачу и оставьте свои комментарий, если Вы скачали Сборник - видеоклипов через торрент бесплатно!
    Комментировать посты могут только пользователи прошедшие не сложную регистрацию
    Показать сообщения:    

    Сборник - видеоклипов через торрент
    Скачать бесплатно Сборник - видеоклипов
    Сборник - видеоклипов скачать торрент
    Сборник - видеоклипов смотреть онлайн
    Cкачать фильм Сборник - видеоклипов бесплатно
    Сборник - видеоклипов скачать торрент в хорошем качестве
    Сборник - видеоклипов смотреть онлайн бесплатно в хорошем качестве


    Вы не можете начинать темы
    Вы не можете отвечать на сообщения
    Вы не можете редактировать свои сообщения
    Вы не можете удалять свои сообщения
    Вы не можете голосовать в опросах
    Вы не можете прикреплять файлы к сообщениям
    Вы можете скачивать файлы