2 сезон

iTunes

MVO

1

2 сезон

iTunes

iTunes

1 сезон

RePack

30

Новинка

ВАЖНО

ИГРА 18+

pack

RePack

MK11
pack

Легкие деньги

RePack

jed

RePack

fifa19

RePack

RDR2

RePack

NEED FOR SPEED™ PAYBACK

4 сезон

9 сезон

Бесстыжие 9 сезон

Все сериалы

все сериалы на PB.wtf

RePack

FAR CRY 5

Anonymous, доброй ночи, мы не успеваем собрать деньги на оплату серверов за декабрь и январь, помогите нам пожалуйста в это трудное время. В качестве благодарности мы отключим Вам всю рекламу на сайте (укажите свой ник в строку Ваше имя)!

×
  
Magnet ссылка

Т2 Трейнспоттинг / На игле 2 / Trainspotting (Дэнни Бойл) [2017, драма, BDRip-AVC] DUB [Лицензия] pb.wtf

Т2 Трейнспоттинг через торрент pb.wtf

Размер: 1.46 GB | Добавлен: 3 года 7 мес. назад | Торрент скачан:739 раз
Скачать  

28-05-2017 06:43 Т2 Трейнспоттинг Скачать торрент  

Т2 Трейнспоттинг / На игле 2 / TrainspottingГод выпуска: 2017
Страна: Великобритания
Жанр: драма
Продолжительность: 01:57:22
Перевод: Дубляж - [Лицензия]
Субтитры: Русские, Английские

Режиссер: Дэнни Бойл

rating

В ролях:

Эван МакГрегор, Юэн Бремнер, Джонни Ли Миллер, Роберт Карлайл, Кевин МакКидд, Кайл Фицпатрик, Келли Макдоналд, Анжела Недялкова, Полин Линч, Джеймс Космо

Описание:

Прошло двадцать лет. Рентон возвращается в единственное место, которое может считать своим домом. Они все ждут его: Кочерыжка, Кайфолом и Бегби. А вместе с ними другие старые знакомые: месть и страх, ненависть и любовь, дружба, сожаление и надежда. Все они выстроились в шеренгу, приветствуя Рентона, и он, кажется, готов к ним присоединиться.

Качество: BDRip-AVC
Формат: MKV
Видео кодек: H.264
Аудио кодек: AC3

Видео: 720x390 (2.40:1), 23,976 fps, x264 ~1331 kbps avg, 0.198 bit/pixel
Аудио#1: 48 kHz, AC3 Dolby Digital, 3/2 (L,C,R,l,r) + LFE ch, ~448.00 kbps avg | RUS (Лицензия)
скриншот   скриншот   скриншот   скриншот   скриншот  

Общее
Уникальный идентификатор : 214928980654575896320858025514077786110 (0xA1B1D0E3CC61ECC9B8928C7772D40FFE)
Полное имя : D:T2.Trainspotting.2017.BDRip(AVC).OlLanDGroup.mkv
Формат : Matroska
Версия формата : Version 2
Размер файла : 1,46 Гбайт
Продолжительность : 1 ч. 57 м.
Общий поток : 1781 Кбит/сек
Название фильма : T2.Trainspotting.2017 #TorpedoUK#
Дата кодирования : UTC 2017-05-28 04:01:03
Программа кодирования : mkvmerge v7.8.0 ('River Man') 32bit built on Apr 3 2015 12:11:22
Библиотека кодирования : libebml v1.3.1 + libmatroska v1.4.2

Видео
Идентификатор : 1
Формат : AVC
Формат/Информация : Advanced Video Codec
Профиль формата : High@L4.1
Параметр CABAC формата : Да
Параметр ReFrames формата : 10 кадров
Идентификатор кодека : V_MPEG4/ISO/AVC
Продолжительность : 1 ч. 57 м.
Битрейт : 1331 Кбит/сек
Ширина : 720 пикселей
Высота : 390 пикселей
Соотношение сторон : 1,85:1
Режим частоты кадров : Постоянный
Частота кадров : 23,976 (24000/1001) кадра/сек
Цветовое пространство : YUV
Субдискретизация насыщенности : 4:2:0
Битовая глубина : 8 бит
Тип развёртки : Прогрессивная
Бит/(Пиксели*Кадры) : 0.198
Размер потока : 1,06 Гбайт (73%)
Библиотека кодирования : x264 core 146 r2538 121396c
Настройки программы : cabac=1 / ref=10 / deblock=1:-3:-3 / analyse=0x3:0x133 / me=umh / subme=11 / psy=1 / psy_rd=1.00:0.07 / mixed_ref=1 / me_range=48 / chroma_me=1 / trellis=2 / 8x8dct=1 / cqm=0 / deadzone=21,11 / fast_pskip=0 / chroma_qp_offset=-3 / threads=6 / lookahead_threads=1 / sliced_threads=0 / nr=0 / decimate=0 / interlaced=0 / bluray_compat=0 / constrained_intra=0 / bframes=10 / b_pyramid=2 / b_adapt=2 / b_bias=0 / direct=3 / weightb=1 / open_gop=0 / weightp=2 / keyint=240 / keyint_min=23 / scenecut=40 / intra_refresh=0 / rc_lookahead=40 / rc=2pass / mbtree=0 / bitrate=1331 / ratetol=1.0 / qcomp=0.60 / qpmin=0 / qpmax=69 / qpstep=4 / cplxblur=20.0 / qblur=0.5 / vbv_maxrate=50000 / vbv_bufsize=62500 / nal_hrd=none / filler=0 / ip_ratio=1.40 / pb_ratio=1.30 / aq=1:1.00
Default : Да
Forced : Нет

Аудио
Идентификатор : 2
Формат : AC-3
Формат/Информация : Audio Coding 3
Расширение режима : CM (complete main)
Параметр Endianness формата : Big
Идентификатор кодека : A_AC3
Продолжительность : 1 ч. 57 м.
Вид битрейта : Постоянный
Битрейт : 448 Кбит/сек
Каналы : 6 каналов
Расположение каналов : Front: L C R, Side: L R, LFE
Частота : 48,0 КГц
Частота кадров : 31,250 кадров/сек (1536 spf)
Битовая глубина : 16 бит
Метод сжатия : С потерями
Размер потока : 376 Мбайт (25%)
Заголовок : License
Язык : Russian
Default : Да
Forced : Нет

Текст #1
Идентификатор : 3
Формат : UTF-8
Идентификатор кодека : S_TEXT/UTF8
Идентификатор кодека/Информация : UTF-8 Plain Text
Заголовок : Full
Язык : Russian
Default : Нет
Forced : Нет

Текст #2
Идентификатор : 4
Формат : UTF-8
Идентификатор кодека : S_TEXT/UTF8
Идентификатор кодека/Информация : UTF-8 Plain Text
Заголовок : Full
Язык : English
Default : Нет
Forced : Нет

Меню
00:00:00.000 : en:00:00:00.000
00:08:03.274 : en:00:08:03.274
00:14:26.574 : en:00:14:26.574
00:20:20.553 : en:00:20:20.553
00:27:35.237 : en:00:27:35.237
00:36:22.138 : en:00:36:22.138
00:44:13.192 : en:00:44:13.192
00:52:33.359 : en:00:52:33.359
00:57:29.821 : en:00:57:29.821
01:03:28.179 : en:01:03:28.179
01:09:31.751 : en:01:09:31.751
01:15:48.753 : en:01:15:48.753
01:22:57.306 : en:01:22:57.306
01:31:03.333 : en:01:31:03.333
01:37:39.979 : en:01:37:39.979
01:45:56.559 : en:01:45:56.559

pb.wtf



Скачать Т2 Трейнспоттинг через торрент http://s019.radikal.ru/i608/1705/4a/856de06b0b4b.jpg Скачать фильм Т2 Трейнспоттинг через торрент бесплантно в хорошем качестве Описание: Прошло двадцать лет. Рентон возвращается в единственное место, которое может считать своим домом. Они все ждут его: Кочерыжка, ... 9.6 10 16
Торрент: Зарегистрирован [2017-05-28 06:43] · скачан: 739 раз
Статус: √ проверено
Размер: 1.46 GB
Как cкачать? Как скачать Т2 Трейнспоттинг через торрент | UTorrent

% Раздел Тема Автор DL S | L
Ultra HD (UHD: 2K, 4K, 8K) — видео сверхвысокой чёткости [ 51.14 GB ] Т2 Трейнспоттинг / T2 Trainspotting [2017 UHD BDRemux 2160p] DUB [] + 2xAVO sheker187 Скачать
1 | 0
Фильмы без перевода [ 22.76 GB ] Т2 Трейнспоттинг / T2 Trainspotting [2017 BD Remux] [Оригинал-ENG] smaster Скачать
1 | 0
Фильмы 2017 [DVDrip, WEB-DLRip, HDrip] (DUB, MVO) [ 2.83 GB ] Т2 Трейнспоттинг / На игле 2 / T2 Trainspotting [2017 HDRip-AVC] [] - ExKinoRay Enigma2010 Скачать
2 | 0
Фильмы [HD 720p, 1080p] (Хороший звук DUB, MVO) [ 8.14 GB ] Т2 Трейнспоттинг / T2 Trainspotting [2017 BDRip 720p] - [Blu-ray EUR] sheker187 Скачать
1 | 0
Фильмы [HD 720p, 1080p] (Хороший звук DUB, MVO) [ 14.38 GB ] Т2 Трейнспоттинг / T2 Trainspotting [2017 BDRip 1080p] - [Blu-ray EUR] sheker187 Скачать
1 | 0
Фильмы 2017 [DVDrip, WEB-DLRip, HDrip] (DUB, MVO) [ 2.18 GB ] Т2 Трейнспоттинг / На игле 2 / T2 Trainspotting [2017 HDRip] [] killermax2013 Скачать
1 | 0
Фильмы (Blu-ray, BD-Remux, HDDVD) [ 35.91 GB ] Т2 Трейнспоттинг / На игле 2 / T2 Trainspotting [2017 Blu-ray EUR 1080p] Russian Mafia Скачать
1 | 0

28-11-2019 20:33  

Отключить всю рекламу на сайте


28-05-2017 08:04 Т2 Трейнспоттинг Скачать торрент  

...забавно, тунец намечен на 20 июня :)pb.wtf



    Дорогой пользователь! Огромная просьба, поблагодарите релизера, оцените раздачу и оставьте свои комментарий, если Вы скачали Т2 Трейнспоттинг через торрент бесплатно! Внесите свою лепту в развитие PiratBit!
    Комментировать посты могут только пользователи прошедшие не сложную регистрацию
    Показать сообщения:    

    Т2 Трейнспоттинг через торрент
    Скачать бесплатно Т2 Трейнспоттинг
    Т2 Трейнспоттинг скачать торрент
    Т2 Трейнспоттинг смотреть онлайн
    Cкачать фильм Т2 Трейнспоттинг бесплатно
    Т2 Трейнспоттинг скачать торрент в хорошем качестве
    Т2 Трейнспоттинг смотреть онлайн бесплатно в хорошем качестве


    Вы не можете начинать темы
    Вы не можете отвечать на сообщения
    Вы не можете редактировать свои сообщения
    Вы не можете удалять свои сообщения
    Вы не можете голосовать в опросах
    Вы не можете прикреплять файлы к сообщениям
    Вы можете скачивать файлы