новый адрес
Ссылка на приватное зеркало всего за 1$. Внимание количество ограничено!!!

iTunes

1+1

iTunes

мы

iTunes

1

iTunes

Чернобыль

iTunes

Ральф против интернета

Лицензия

ПШазам

Лицензия

Оно 2

Лицензия

30
pack

Вам бонус

ВАЖНО

!!Акция!!

Alien_RageХит недели

RePack

Resident Evil 21

ИГРА 18+

pack

RePack

jed

!!Акция!!

Alien_Rage

RePack

fifa19

RePack

Assassins Creed: Odyssey

RePack

NEED FOR SPEED™ PAYBACK

3 сезон

9 сезон

Бесстыжие 9 сезон

Все сериалы

все сериалы на PB.wtf

RePack

FAR CRY 5
Ребята, катастрофически не хватает 1900р. для оплаты серверов за Октябрь (всвязи с блокировками трафик упал в 3 раза), 1-2р., выручайте.
  

Люди и звери (Сергей Герасимов) [1962, Германия (ГДР), СССР, драма, DVDRip от AVP Studio] pb.wtf

Люди и звери через торрент pb.wtf

Размер: 1.46 GB | Добавлен: 2 года 4 мес. назад | Торрент скачан:1 раз
Скачать  

28-05-2017 09:42 Люди и звери Скачать торрент  

Люди и звери
Страна: Германия (ГДР), СССР
Производство: Киностудия им. Горького, ДЕФА

Жанр: драма
Год выпуска: 1962
Продолжительность: 03:19:42 (01:35:36 + 01:44:06)

Перевод: Не требуется
Cубтитры: нет
Оригинальная аудиодорожка: русский

Режиссер: Сергей Герасимов

В ролях:
Николай Ерёменко (ст.), Тамара Макарова, Жанна Болотова, Виталий Доронин, Наталья Медведева, Сергей Никоненко, Олеся Иванова, Анастасия Филиппова (Горина), Михаил Глузский, Вадим Захарченко, Татьяна Гаврилова, Сергей Герасимов, Мария Рувель, Фридрих Вильгельм Юнге, Петер Ройссе, Вернер Тёльке...
Об актёрах подробней

Описание:
В основе сюжета — драматическая судьба советского офицера Алексея Павлова. Попав в январе 1942 года подо Мгой в плен и, оказавшись в числе перемещенных лиц, герой не сразу решился на возвращение в СССР. Поскитавшись по чужбине 17 лет, Алексей все же вернулся на родину. Случайные попутчицы, ехавшие из Москвы на юг, — врач Анна Андреевна и ее дочь Таня — стали первыми, кому Павлов поведал о своих мытарствах.

Источник: 2хDVD9 R5
Качество видео: DVDRip
Формат видео: AVI

Видео: 576x432 (4:3), 25 fps, XviD ~ 908 kbps avg, 0.146 bit/pixel
Аудио: 48 kHz, MP3 2.0, 128 kbps

Раздача от:
Общее
Полное имя : DLyudi.i.zveri.1962.DVDRip-1,46_[New-team]_by_AVP_Studio.avi
Формат : AVI
Формат/Информация : Audio Video Interleave
Размер файла : 715 Мбайт
Продолжительность : 1 ч. 35 м.
Общий поток : 1046 Кбит/сек
Программа кодирования : VirtualDubMod 1.5.10.3 | www.virtualdub-fr.org || (build 2550/release)
Библиотека кодирования : VirtualDubMod build 2550/release

Видео
Идентификатор : 0
Формат : MPEG-4 Visual
Профиль формата : Advanced Simple@L5
Параметр BVOP формата : 1
Параметр QPel формата : Нет
Параметр GMC формата : Без точки перехода
Параметр матрицы формата : Выборочная
Идентификатор кодека : XVID
Идентификатор кодека/Подсказка : XviD
Продолжительность : 1 ч. 35 м.
Битрейт : 908 Кбит/сек
Ширина : 576 пикселей
Высота : 432 пикселя
Соотношение сторон : 4:3
Частота кадров : 25,000 кадров/сек
Цветовое пространство : YUV
Субдискретизация насыщенности : 4:2:0
Битовая глубина : 8 бит
Тип развёртки : Прогрессивная
Метод сжатия : С потерями
Бит/(Пиксели*Кадры) : 0.146
Размер потока : 621 Мбайт (87%)
Библиотека кодирования : XviD 73

Аудио
Идентификатор : 1
Формат : MPEG Audio
Версия формата : Version 1
Профиль формата : Layer 3
Идентификатор кодека : 55
Идентификатор кодека/Подсказка : MP3
Продолжительность : 1 ч. 35 м.
Вид битрейта : Постоянный
Битрейт : 128 Кбит/сек
Каналы : 2 канала
Частота : 48,0 КГц
Метод сжатия : С потерями
Размер потока : 87,5 Мбайт (12%)
Выравнивание : Соединение по промежуткам
Продолжительность промежутка : 40 мс. (1,00 видеокадр)
Время предзагрузки промежутка : 504 мс.
Библиотека кодирования : LAME3.99r
Настройки программы : -m s -V 4 -q 2 -lowpass 17 -b 128
pb.wtf



Скачать Люди и звери через торрент http://s013.radikal.ru/i322/1705/d9/ad846449f2ab.png Скачать фильм Люди и звери через торрент бесплантно в хорошем качестве Описание:В основе сюжета — драматическая судьба советского офицера Алексея Павлова. Попав в январе 1942 года подо Мгой в плен и, оказавшись ... 10 10 1
Info! Золотая раздача, скачанное не засчитывается.
Торрент: Зарегистрирован [2017-07-19 06:28] · скачан: 1 раз
Статус: √ проверено
Размер: 1.46 GB
Как cкачать? Как скачать Люди и звери через торрент | qTorrent

% Раздел Тема Автор DL S | L
Кино СССР [ 2.91 GB ] Люди и звери [1962 Германия СССР DVDRip-AVC от AVP Studio] AVP Studio Скачать
1 | 0
Кино СССР [ 2.91 GB ] Люди и звери [1962 Германия СССР DVDRip от AVP Studio] AVP Studio Скачать
1 | 0


>> Регистрируемся здесь <<






Отзывы и комментарии о схеме читаем и пишем здесь: ---> Отзывы и комментарии о схеме

Новые благодарочки в телеграм довольных пользователей:
скриншот   скриншот   скриншот   скриншот   скриншот
    Дорогой пользователь! Огромная просьба, поблагодарите релизера, оцените раздачу и оставьте свои комментарий, если Вы скачали Люди и звери через торрент бесплатно! Внесите свою лепту в развитие PiratBit!
    Комментировать посты могут только пользователи прошедшие не сложную регистрацию
    Показать сообщения:    

    Люди и звери через торрент
    Скачать бесплатно Люди и звери
    Люди и звери скачать торрент
    Люди и звери смотреть онлайн
    Cкачать фильм Люди и звери бесплатно
    Люди и звери скачать торрент в хорошем качестве
    Люди и звери смотреть онлайн бесплатно в хорошем качестве


    Вы не можете начинать темы
    Вы не можете отвечать на сообщения
    Вы не можете редактировать свои сообщения
    Вы не можете удалять свои сообщения
    Вы не можете голосовать в опросах
    Вы не можете прикреплять файлы к сообщениям
    Вы можете скачивать файлы