Ссылка на приватное зеркало нашего сайта всего за 1$. Внимание количество ограничено!!!

2 сезон

iTunes

1 сезон

1

iTunes

iTunes

iTunes

1 сезон

RePack

30

ИГРА 18+

pack

ВАЖНО

!!Акция!!

Alien_RageХит недели

RePack

MK11
pack

Забери бонус

RePack

jed

!!Акция!!

Alien_Rage

RePack

fifa19

RePack

Assassins Creed: Odyssey

RePack

NEED FOR SPEED™ PAYBACK

4 сезон

9 сезон

Бесстыжие 9 сезон

Все сериалы

все сериалы на PB.wtf

RePack

FAR CRY 5
  

Любовь и страсть. Далида / Dalida (Лиза Азуэлос) [2016, биография, BDRip 720p by msltel] DUB pb.wtf

Любовь и страсть. Далида через торрент pb.wtf

Размер: 5.08 GB | Добавлен: 3 года 5 мес. назад | Торрент скачан:27 раз
Скачать  

28-05-2017 11:18 Любовь и страсть. Далида Скачать торрент  

Название: Любовь и страсть. Далида
Оригинальное название: Dalida
Год выпуска: 2016
Страна: Франция
Жанр: биография
Продолжительность: 02:07:13
Перевод: дублированный

Режиссёр: Лиза Азуэлос

В ролях: Свева Алтиви, Венсан Перес, Риккардо Скамарчио, Нильс Шнайдер, Жан-Поль Рув, Николя Дювошель, Алессандро Борги, Валентина Карли, Бренно Плачидо, Микаэль Коэн

Описание: Она была рождена, чтобы стать звездой. Она обладала магической красотой и невероятным голосом. Она ворвалась на музыкальный Олимп и завладела сердцами слушателей всего мира. Но слава и деньги не принесли ей счастья. Всю жизнь она искала настоящую любовь и ради неё пожертвовала всем...



Качество: BDRip 720p
Формат: MKV
Видео: MPEG-4 AVC, 4889 Кбит/с, 1280x534
Аудио 1: русский, AC3, 384 kbps, 6 ch [дублированный, iTunes]
Аудио 2: французский, AC3, 448 kbps, 6 ch, 48 kHz [оригинал]
Имеются неименованные главы/чаптеры.
Общее
Уникальный идентификатор : 249612768250616797716019177740955944980 (0xBBC9ABA5120A2415B274920A01160814)
Полное имя : D:\Video\Далида.2016.BDRip.720p by msltel.mkv
Формат : Matroska
Версия формата : Version 4 / Version 2
Размер файла : 5,08 Гбайт
Продолжительность : 2 ч. 7 м.
Общий поток : 5712 Кбит/сек
Название фильма : Rip by msltel
Дата кодирования : UTC 2017-05-27 01:59:13
Программа кодирования : mkvmerge v8.2.0 ('World of Adventure') 64bit
Библиотека кодирования : libebml v1.3.1 + libmatroska v1.4.2

Видео
Идентификатор : 1
Формат : AVC
Формат/Информация : Advanced Video Codec
Профиль формата : High@L4.1
Параметр CABAC формата : Да
Параметр ReFrames формата : 9 кадров
Идентификатор кодека : V_MPEG4/ISO/AVC
Продолжительность : 2 ч. 6 м.
Битрейт : 4889 Кбит/сек
Ширина : 1280 пикселей
Высота : 534 пикселя
Соотношение сторон : 2,40:1
Режим частоты кадров : Постоянный
Частота кадров : 23,976 (24000/1001) кадра/сек
Цветовое пространство : YUV
Субдискретизация насыщенности : 4:2:0
Битовая глубина : 8 бит
Тип развёртки : Прогрессивная
Бит/(Пиксели*Кадры) : 0.298
Размер потока : 4,34 Гбайт (85%)
Библиотека кодирования : x264 core 146 r2538 121396c
Настройки программы : cabac=1 / ref=9 / deblock=1:-3:-2 / analyse=0x3:0x113 / me=umh / subme=11 / psy=1 / psy_rd=1.00:0.15 / mixed_ref=1 / me_range=32 / chroma_me=1 / trellis=2 / 8x8dct=1 / cqm=0 / deadzone=21,11 / fast_pskip=0 / chroma_qp_offset=-3 / threads=6 / lookahead_threads=1 / sliced_threads=0 / nr=0 / decimate=1 / interlaced=0 / bluray_compat=0 / constrained_intra=0 / bframes=8 / b_pyramid=2 / b_adapt=2 / b_bias=0 / direct=1 / weightb=1 / open_gop=0 / weightp=2 / keyint=230 / keyint_min=23 / scenecut=40 / intra_refresh=0 / rc_lookahead=40 / rc=crf / mbtree=0 / crf=18.0 / qcomp=0.60 / qpmin=0 / qpmax=69 / qpstep=4 / vbv_maxrate=62500 / vbv_bufsize=78125 / crf_max=0.0 / nal_hrd=none / filler=0 / ip_ratio=1.40 / pb_ratio=1.30 / aq=1:1.00
Язык : English
Default : Да
Forced : Нет

Аудио #1
Идентификатор : 2
Формат : AC-3
Формат/Информация : Audio Coding 3
Параметр Endianness формата : Big
Идентификатор кодека : A_AC3
Продолжительность : 2 ч. 7 м.
Вид битрейта : Постоянный
Битрейт : 384 Кбит/сек
Каналы : 6 каналов
Расположение каналов : Front: L C R, Side: L R, LFE
Частота : 48,0 КГц
Частота кадров : 31,250 кадров/сек (1536 spf)
Битовая глубина : 16 бит
Метод сжатия : С потерями
Размер потока : 349 Мбайт (7%)
Заголовок : DUB (iTunes)
Язык : Russian
ServiceKind/String : Complete Main
Default : Да
Forced : Нет

Аудио #2
Идентификатор : 3
Формат : AC-3
Формат/Информация : Audio Coding 3
Параметр Endianness формата : Big
Идентификатор кодека : A_AC3
Продолжительность : 2 ч. 6 м.
Вид битрейта : Постоянный
Битрейт : 448 Кбит/сек
Каналы : 6 каналов
Расположение каналов : Front: L C R, Side: L R, LFE
Частота : 48,0 КГц
Частота кадров : 31,250 кадров/сек (1536 spf)
Битовая глубина : 16 бит
Метод сжатия : С потерями
Размер потока : 407 Мбайт (8%)
Заголовок : original
Язык : French
ServiceKind/String : Complete Main
Default : Нет
Forced : Нет

Меню
00:00:00.000 : :Chapter 01
00:07:25.194 : :Chapter 02
00:15:50.073 : :Chapter 03
00:24:23.377 : :Chapter 04
00:32:38.163 : :Chapter 05
00:42:33.050 : :Chapter 06
00:51:10.774 : :Chapter 07
01:00:37.675 : :Chapter 08
01:08:05.498 : :Chapter 09
01:17:35.317 : :Chapter 10
01:26:22.091 : :Chapter 11
01:33:20.344 : :Chapter 12
01:41:33.212 : :Chapter 13
01:50:15.609 : :Chapter 14
01:56:49.042 : :Chapter 15
02:03:17.972 : :Chapter 16
02:06:57.109 : :Chapter 17
pb.wtf



Скачать Любовь и страсть. Далида через торрент http://i075.radikal.ru/1705/83/abc5bec06f2c.jpg Скачать фильм Любовь и страсть. Далида через торрент бесплантно в хорошем качестве Описание: Она была рождена, чтобы стать звездой. Она обладала магической красотой и невероятным голосом. Она ворвалась на музыкальный Олимп ... 10 10 1
Info! Золотая раздача, скачанное не засчитывается.
Торрент: Зарегистрирован [2017-05-28 11:18] · скачан: 27 раз
Статус: √ проверено
Размер: 5.08 GB
Как cкачать? Как скачать Любовь и страсть. Далида через торрент | qTorrent

% Раздел Тема Автор DL S | L
Фильмы 2016 [DVDrip, WEB-DLRip, HDrip] (DUB, MVO) [ 1.46 GB ] Любовь и страсть. Далида / Dalida [2016 биография BDRip] bober100 Скачать
1 | 0
Фильмы [HD 720p, 1080p] (Хороший звук DUB, MVO) [ 14.75 GB ] Любовь и страсть. Далида / Dalida [2016 биография BDRip 1080p by msltel] DUB msltel Скачать
1 | 0

28-11-2019 20:33  

Отключить всю рекламу на сайте

    Дорогой пользователь! Огромная просьба, поблагодарите релизера, оцените раздачу и оставьте свои комментарий, если Вы скачали Любовь и страсть. Далида через торрент бесплатно! Внесите свою лепту в развитие PiratBit!
    Комментировать посты могут только пользователи прошедшие не сложную регистрацию
    Показать сообщения:    

    Любовь и страсть. Далида через торрент
    Скачать бесплатно Любовь и страсть. Далида
    Любовь и страсть. Далида скачать торрент
    Любовь и страсть. Далида смотреть онлайн
    Cкачать фильм Любовь и страсть. Далида бесплатно
    Любовь и страсть. Далида скачать торрент в хорошем качестве
    Любовь и страсть. Далида смотреть онлайн бесплатно в хорошем качестве


    Вы не можете начинать темы
    Вы не можете отвечать на сообщения
    Вы не можете редактировать свои сообщения
    Вы не можете удалять свои сообщения
    Вы не можете голосовать в опросах
    Вы не можете прикреплять файлы к сообщениям
    Вы можете скачивать файлы