Ссылка на приватное зеркало всего за 1$. Внимание количество ограничено!!!

iTunes

iTunes

iTunes

1

iTunes

iTunes

iTunes

iTunes

iTunes

30
pack

$ от Little Big

ВАЖНО

!!Акция!!

Alien_RageХит недели

RePack

Resident Evil 21

ИГРА 18+

pack

RePack

jed

!!Акция!!

Alien_Rage

RePack

fifa19

RePack

Assassins Creed: Odyssey

RePack

NEED FOR SPEED™ PAYBACK

4 сезон

9 сезон

Бесстыжие 9 сезон

Все сериалы

все сериалы на PB.wtf

RePack

FAR CRY 5
  

Бунтарка / Stick It (Джессика Бендинджер ) [2006, драма, комедия, спорт, WEB-DL 1080p] Дубляж pb.wtf

Бунтарка через торрент pb.wtf

Размер: 5.56 GB | Добавлен: 3 года 1 мес. назад | Торрент скачан:69 раз
Скачать  

28-05-2017 11:29 Бунтарка Скачать торрент  

Бунтарка / Stick It

Год выпуска: 2006
Страна: США, Германия
Жанр: драма, комедия, спорт

Продолжительность: 01:38:53
Перевод: Дубляж
Режиссер: Джессика Бендинджер
В ролях: Мисси Перегрим (Haley Graham), Джефф Бриджес (Burt Vickerman), Ванесса Ленгиз (Joanne Charis), Никки СуХу (Wei Wei Yong), Мэдди Керли (Mina Hoyt), Келлан Латс (Frank), Джон Патрик Амедори (Poot), Мио Дзакула (Ivan), Светлана Ефремова (Dorrie), Джон Грайз (Brice Graham), Джиа Каридес (Alice Graham), Тара Пейдж (Tricia Skilken)
Описание:
Год назад она уже представляла свою страну в мировом турнире по спортивной гимнастике. Но в последний момент она отказывается от участия в чемпионате, лишая тем самым команду золотой медали. Почему? Да потому что все надоело. Она решает поставить крест на спорте и пожить «нормальной жизнью подростка» - вламываться в окна домов богатых буржуа, ездить на скейте и тусоваться с сомнительными личностями. Однажды ее ловит полиция и предъявляет ей обвинение в злостном хулиганстве. Теперь у нее только два пути - либо в тюрьму, либо в закрытую элитную гимнастическую академию. Что практически одно и тоже.
Рейтинг:

MPAA: PG-13 - Детям до 13 лет просмотр не желателен
Качество: WEB-DL 1080p
Формат: MKV
Видео: AVC, 1920x1080 (16:9), 7499 kbps, 25 fps, 0,145 bpp
Аудио №1: русский / AC3 / 2.0 / 48 kHz / 192 kbps / ||
Аудио №2: английский / AC3 / 5.1 / 48 kHz / 448 kbps /

General
Unique ID : 208057561846710077544717681908165942629 (0x9C866DC9393B14F0AE733F0FBE949D65)
Complete name : D:\Proba\Stick.it.2006.1080p.WEB-DL.DD5.1.H264-FGT\Stick.it.2006.1080p.WEB-DL.mkv
Format : Matroska
Format version : Version 4 / Version 2
File size : 5.56 GiB
Duration : 1 h 38 min
Overall bit rate mode : Constant
Overall bit rate : 8 048 kb/s
Movie name : Stick.it.2006.1080p.WEB-DL.DD5.1.H264-FGT
Encoded date : UTC 2017-05-28 09:32:11
Writing application : mkvmerge v12.0.0 ('Trust / Lust') 64bit
Writing library : libebml v1.3.4 + libmatroska v1.4.5
Cover : Yes
Attachments : cover_land.jpg / small_cover.jpg / small_cover_land.jpg / cover.jpg

Video
ID : 1
Format : AVC
Format/Info : Advanced Video Codec
Format profile : High@L4
Format settings, CABAC : No
Format settings, ReFrames : 2 frames
Format settings, GOP : M=3, N=50
Codec ID : V_MPEG4/ISO/AVC
Duration : 1 h 38 min
Bit rate mode : Constant
Bit rate : 7 500 kb/s
Width : 1 920 pixels
Height : 1 080 pixels
Display aspect ratio : 16:9
Frame rate mode : Constant
Frame rate : 25.000 FPS
Color space : YUV
Chroma subsampling : 4:2:0
Bit depth : 8 bits
Scan type : Progressive
Bits/(Pixel*Frame) : 0.145
Stream size : 5.12 GiB (92%)
Title : Stick.it.2006.1080p.WEB-DL.DD5.1.H264-FGT
Language : English
Default : Yes
Forced : No

Audio #1
ID : 2
Format : AC-3
Format/Info : Audio Coding 3
Format profile : Dolby Digital
Mode extension : CM (complete main)
Format settings, Endianness : Big
Codec ID : A_AC3
Duration : 1 h 38 min
Bit rate mode : Constant
Bit rate : 192 kb/s
Channel(s) : 2 channels
Channel positions : Front: L R
Sampling rate : 48.0 kHz
Frame rate : 31.250 FPS (1536 spf)
Compression mode : Lossy
Delay relative to video : -96 ms
Stream size : 136 MiB (2%)
Language : Russian
Default : Yes
Forced : No

Audio #2
ID : 3
Format : AC-3
Format/Info : Audio Coding 3
Mode extension : CM (complete main)
Format settings, Endianness : Big
Codec ID : A_AC3
Duration : 1 h 38 min
Bit rate mode : Constant
Bit rate : 448 kb/s
Channel(s) : 6 channels
Channel positions : Front: L C R, Side: L R, LFE
Sampling rate : 48.0 kHz
Frame rate : 31.250 FPS (1536 spf)
Compression mode : Lossy
Delay relative to video : -96 ms
Stream size : 317 MiB (6%)
Title : Stick.it.2006.1080p.WEB-DL.DD5.1.H264-FGT
Language : English
Default : No
Forced : No
pb.wtf



Скачать Бунтарка через торрент http://i2.imageban.ru/out/2017/05/28/4a6fd80bb2fd8fc5c706509ca9aba67f.jpg Скачать фильм Бунтарка через торрент бесплантно в хорошем качестве Описание: Год назад она уже представляла свою страну в мировом турнире по спортивной гимнастике. Но в последний момент она отказывается от ... 10 10 3
Торрент: Зарегистрирован [2017-05-28 11:29] · скачан: 69 раз
Статус: √ проверено
Размер: 5.56 GB
Как cкачать? Как скачать Бунтарка через торрент | qTorrent

28-11-2019 20:33  

Отключить всю рекламу на сайте

28-05-2017 12:51 Бунтарка Скачать торрент  

вот буквально неделю назад,смотрел этот фильмpb.wtf



28-05-2017 13:36 Бунтарка Скачать торрент  

andreichik60 писал(а):

вот буквально неделю назад,смотрел этот фильм

и не дрогнула рука такое написатьpb.wtf



28-05-2017 18:46 Бунтарка Скачать торрент  

kpuctaluk писал(а):

и не дрогнула рука такое написать

в том то что опять что ли его смотреть,но спс за хорошее качество.но фильм стоит посмотретьpb.wtf



    Дорогой пользователь! Огромная просьба, поблагодарите релизера, оцените раздачу и оставьте свои комментарий, если Вы скачали Бунтарка через торрент бесплатно! Внесите свою лепту в развитие PiratBit!
    Комментировать посты могут только пользователи прошедшие не сложную регистрацию
    Показать сообщения:    

    Бунтарка через торрент
    Скачать бесплатно Бунтарка
    Бунтарка скачать торрент
    Бунтарка смотреть онлайн
    Cкачать фильм Бунтарка бесплатно
    Бунтарка скачать торрент в хорошем качестве
    Бунтарка смотреть онлайн бесплатно в хорошем качестве


    Вы не можете начинать темы
    Вы не можете отвечать на сообщения
    Вы не можете редактировать свои сообщения
    Вы не можете удалять свои сообщения
    Вы не можете голосовать в опросах
    Вы не можете прикреплять файлы к сообщениям
    Вы можете скачивать файлы