Достать ножи: Стеклянная луковица

MVO

Добыча

Дубляж

Уэнсдэй

1 сезон

Тор

Дубляж

13 клиническая

1 сезон

Жестокая ночь

MVO

Одни из нас

1 сезон

Deluxe

pack

Рекомендуем

30

Пиратка

ВАЖНО

ВАЖНО

Ghostwire

Пиратка

jed

RePack

nioh2

RePack

RDR2

RePack

NEED FOR SPEED™ PAYBACK

RePack

скачать торрент

Кинопоиск HD

Острые козырьки 6 сезон

6 сезон

FAR CRY 6

RePack

скачать торрент

Лицензия

скачать торрент

MVO

1

1 сезон

скачать торрент

1 сезон

скачать торрент

Лицензия

  

Лавинг / Loving (Джефф Николс) [2016, драма, мелодрама, биография, BDRip 1080p] Дубляж - [Лицензия]

Лавинг через торрент pb.wtf

Размер: 14.12 GB | Добавлен: 5 лет 7 мес. назад | Торрент скачан:71 раз
Смотреть онлайн | Скачать | Поддержите нас   

28-05-2017 13:46 Лавинг Скачать торрент  

Лавинг / Loving
««All love is created equal»»

Год выпуска: 2016
Страна: Великобритания, США
Жанр: драма, мелодрама, биография

Продолжительность: 02:03:01
Перевод: Дубляж - [Лицензия]
Субтитры: русские (Forced, iTunes), русские (iTunes), английские (SDH, iTunes)
Режиссер: Джефф Николс
В ролях:

Рут Негга (Mildred), Джоэл Эдгертон (Richard), Уилл Далтон (Virgil), Дин Мамфорд (Drag Race Driver), Терри Эбни (Garnet), Алано Миллер (Raymond), Крис Дж. (Percy), Бенжамин Букер (Shotgun Shack Musician #1), Justin Robinson (Shotgun Shack Musician #2), Dennis Williams (Shotgun Shack Musician #3), Кит Тайри (Bricklayer), Шэрон Блэквуд (Lola Loving)
Описание:
В 1958 году в штате Вирджиния Ричард и Милдред Лавинг приговорены к тюремному заключению за вступление в межрасовый брак.
Рейтинг:

MPAA: PG-13 - Детям до 13 лет просмотр не желателен
Качество: BDRip 1080p
Формат: MKV
Видео: AVC, 1920x800 (2.40:1), 13632 kbps, 23,976 fps, 0,370 bpp
Аудио №1: русский / DTS / 5.1 / 48 kHz / 768 kbps / 24 bit |Дубляж, Blu-ray CEE|
Аудио №2: английский / DTS / 5.1 / 48 kHz / 1509 kbps / 24 bit |Оригинал|
Аудио №3: английский / AC3 / 2.0 / 48 kHz / 192 kbps / |Audio Commentary with Director Jeff Nichols|
Навигация по главам: есть
Релиз от:
General
Unique ID : 194121980974605151881927544288172674767 (0x920A889A28A512E2B67D187E2E7D8ECF)
Complete name : E:\Loving.2016.1080p.BluRay.DTS.Rus.2xEng.HDCLUB.mkv
Format : Matroska
Format version : Version 2
File size : 14.1 GiB
Duration : 2 h 3 min
Overall bit rate : 16.4 Mb/s
Movie name : Loving (2016) - Release for HDCLUB
Encoded date : UTC 2017-05-27 18:52:08
Writing application : mkvmerge v3.4.0 ('Rapunzel') built on May 15 2010 09:38:20
Writing library : libebml v0.8.0 + libmatroska v0.9.0

Video
ID : 1
Format : AVC
Format/Info : Advanced Video Codec
Format profile : [email protected]
Format settings, CABAC : Yes
Format settings, ReFrames : 5 frames
Codec ID : V_MPEG4/ISO/AVC
Duration : 2 h 3 min
Bit rate : 13.6 Mb/s
Width : 1 920 pixels
Height : 800 pixels
Display aspect ratio : 2.40:1
Frame rate mode : Constant
Frame rate : 23.976 (24000/1001) FPS
Color space : YUV
Chroma subsampling : 4:2:0
Bit depth : 8 bits
Scan type : Progressive
Bits/(Pixel*Frame) : 0.370
Stream size : 11.7 GiB (83%)
Title : Loving (2016) - Release for HDCLUB
Writing library : x264 core 148 r2744 b97ae06
Encoding settings : cabac=1 / ref=5 / deblock=1:-3:-3 / analyse=0x3:0x133 / me=umh / subme=10 / psy=1 / psy_rd=1.00:0.00 / mixed_ref=1 / me_range=32 / chroma_me=1 / trellis=2 / 8x8dct=1 / cqm=0 / deadzone=21,11 / fast_pskip=0 / chroma_qp_offset=-2 / threads=8 / lookahead_threads=1 / sliced_threads=0 / nr=0 / decimate=0 / interlaced=0 / bluray_compat=0 / constrained_intra=0 / bframes=9 / b_pyramid=2 / b_adapt=2 / b_bias=0 / direct=3 / weightb=1 / open_gop=0 / weightp=2 / keyint=250 / keyint_min=23 / scenecut=40 / intra_refresh=0 / rc_lookahead=150 / rc=crf / mbtree=0 / crf=17.3 / qcomp=0.60 / qpmin=0 / qpmax=69 / qpstep=4 / vbv_maxrate=62500 / vbv_bufsize=78125 / crf_max=0.0 / nal_hrd=none / filler=0 / ip_ratio=1.30 / pb_ratio=1.20 / aq=3:0.80
Language : English
Default : Yes
Forced : No

Audio #1
ID : 2
Format : DTS
Format/Info : Digital Theater Systems
Mode : 16
Format settings, Endianness : Big
Codec ID : A_DTS
Duration : 2 h 3 min
Bit rate mode : Constant
Bit rate : 768 kb/s
Channel(s) : 6 channels
Channel positions : Front: L C R, Side: L R, LFE
Sampling rate : 48.0 kHz
Frame rate : 93.750 FPS (512 spf)
Bit depth : 24 bits
Compression mode : Lossy
Stream size : 676 MiB (5%)
Title : DTS 5.1 @ 768 kbps - Дубляж, Blu-ray CEE
Language : Russian
Default : Yes
Forced : No

Audio #2
ID : 3
Format : DTS
Format/Info : Digital Theater Systems
Mode : 16
Format settings, Endianness : Big
Codec ID : A_DTS
Duration : 2 h 3 min
Bit rate mode : Constant
Bit rate : 1 509 kb/s
Channel(s) : 6 channels
Channel positions : Front: L C R, Side: L R, LFE
Sampling rate : 48.0 kHz
Frame rate : 93.750 FPS (512 spf)
Bit depth : 24 bits
Compression mode : Lossy
Stream size : 1.30 GiB (9%)
Title : DTS 5.1 @ 1536 kbps
Language : English
Default : No
Forced : No

Audio #3
ID : 4
Format : AC-3
Format/Info : Audio Coding 3
Format profile : Dolby Digital
Mode extension : CM (complete main)
Format settings, Endianness : Big
Codec ID : A_AC3
Duration : 2 h 3 min
Bit rate mode : Constant
Bit rate : 192 kb/s
Channel(s) : 2 channels
Channel positions : Front: L R
Sampling rate : 48.0 kHz
Frame rate : 31.250 FPS (1536 spf)
Compression mode : Lossy
Stream size : 169 MiB (1%)
Title : AC3 2.0 @ 192 kbps - Audio Commentary with Director Jeff Nichols
Language : English
Default : No
Forced : No

Text #1
ID : 5
Format : UTF-8
Codec ID : S_TEXT/UTF8
Codec ID/Info : UTF-8 Plain Text
Title : Forced, iTunes
Language : Russian
Default : Yes
Forced : No

Text #2
ID : 6
Format : UTF-8
Codec ID : S_TEXT/UTF8
Codec ID/Info : UTF-8 Plain Text
Title : iTunes
Language : Russian
Default : No
Forced : No

Text #3
ID : 7
Format : UTF-8
Codec ID : S_TEXT/UTF8
Codec ID/Info : UTF-8 Plain Text
Title : SDH, iTunes
Language : English
Default : No
Forced : No

Menu
00:00:00.000 : en:Chapter 1
00:08:02.774 : en:Chapter 2
00:13:27.974 : en:Chapter 3
00:18:32.320 : en:Chapter 4
00:23:01.964 : en:Chapter 5
00:28:45.599 : en:Chapter 6
00:32:45.088 : en:Chapter 7
00:44:52.315 : en:Chapter 8
00:50:46.293 : en:Chapter 9
00:59:36.323 : en:Chapter 10
01:05:19.082 : en:Chapter 11
01:10:36.023 : en:Chapter 12
01:14:58.160 : en:Chapter 13
01:19:50.619 : en:Chapter 14
01:29:16.768 : en:Chapter 15
01:35:16.878 : en:Chapter 16
01:43:08.599 : en:Chapter 17
01:47:46.794 : en:Chapter 18
01:53:03.568 : en:Chapter 19
01:56:07.377 : en:Chapter 20



Скачать Лавинг через торрент http://i5-imageban-ru.translate.goog/out/2017/05/28/0a5aa40f05e3e9fbc5fae6a53aeab56c.jpg Скачать, смотреть онлайн Лавинг бесплантно в хорошем качестве Описание: В 1958 году в штате Вирджиния Ричард и Милдред Лавинг приговорены к тюремному заключению за вступление в межрасовый ... 10 10 1
Торрент: Зарегистрирован [2017-05-28 13:46] · скачан: 71 раз
Статус: √ проверено
Размер: 14.12 GB
Как cкачать? Как скачать Лавинг через торрент | UTorrent

% Раздел Тема Автор DL S | L
Фильмы (Blu-ray, BD-Remux, HDDVD) [ 41.11 GB ] Лавинг / Loving | Лицензия | 1080p Russian Mafia Скачать
1 | 0
Фильмы 2016 [DVDrip, WEB-DLRip, HDrip] (DUB, MVO) [ 1.46 GB ] Лавинг / Loving | Лицензия | BDRip -Lexx- Скачать
1 | 0
Фильмы 2016 [DVDrip, WEB-DLRip, HDrip] (DUB, MVO) [ 2.18 GB ] Лавинг / Loving | Лицензия | BDRip -Lexx- Скачать
1 | 0

28-11-2019 20:33  


Отключить вcю реклaмy на сайте, в т.ч. и в плеере онлайн просмотра!

    Дорогой пользователь! Огромная просьба, поблагодарите релизера, оцените раздачу и оставьте свои комментарий, если Вы скачали Лавинг через торрент бесплатно!!
    Комментировать посты могут только пользователи прошедшие не сложную регистрацию
    Показать сообщения:    


    Лавинг через торрент
    Скачать бесплатно Лавинг
    Лавинг скачать торрент
    Лавинг смотреть онлайн
    Cкачать фильм Лавинг бесплатно
    Лавинг скачать торрент в хорошем качестве
    Лавинг смотреть онлайн бесплатно в хорошем качестве
    Вы не можете начинать темы
    Вы не можете отвечать на сообщения
    Вы не можете редактировать свои сообщения
    Вы не можете удалять свои сообщения
    Вы не можете голосовать в опросах
    Вы не можете прикреплять файлы к сообщениям
    Вы можете скачивать файлы
    Лавинг / Loving [2016, драма, мелодрама, биография, BDRip 1080p] Дубляж - [Лицензия] смотреть онлайн, скачать торрент picoco.icu