Ссылка на приватное зеркало нашего сайта всего за 1$. Внимание количество ограничено!!!

2 сезон

iTunes

1 сезон

1

iTunes

iTunes

iTunes

1 сезон

RePack

30

ИГРА 18+

pack

ВАЖНО

!!Акция!!

Alien_RageХит недели

RePack

MK11
pack

Забери бонус

RePack

jed

!!Акция!!

Alien_Rage

RePack

fifa19

RePack

Assassins Creed: Odyssey

RePack

NEED FOR SPEED™ PAYBACK

4 сезон

9 сезон

Бесстыжие 9 сезон

Все сериалы

все сериалы на PB.wtf

RePack

FAR CRY 5
  

Мой парень – киллер / Mr. Right (Пако Кабесас) [2015, боевик, мелодрама, комедия, BDRip 1080p] DUB [iTunes], MVO [RecentFilms], AVO [M. Чадов] pb.wtf

Мой парень – киллер через торрент pb.wtf

Размер: 11.77 GB | Добавлен: 3 года 5 мес. назад | Торрент скачан:171 раз
Скачать  

28-05-2017 15:27 Мой парень – киллер Скачать торрент  

Мой парень – киллер / Mr. Right
««They make a killer couple»»

Год выпуска: 2015
Страна: США
Жанр: боевик, мелодрама, комедия

Продолжительность: 01:35:29
Перевод: Дубляж - [Лицензия / iTunes]; Любительский многоголосый [RecentFilms]; Авторский одноголосый [Михаил Чадов]
Примечание: В авторской озвучке присутствует ненормативная лексика!
Субтитры: русские (Forced Songs), русские (Full (Мат)), английские (Full), английские (SDH)
Режиссер: Пако Кабесас
В ролях:

Сэм Рокуэлл (Mr. Right / Francis), Анна Кендрик (Martha McKay), Тим Рот (Hopper / Reynolds), Джеймс Рэнсон (Von Cartigan), Энсон Маунт (Richard Cartigan), Майкл Эклунд (Johnny Moon), RZA (Shotgun Steve), Кэти Нехра (Sophie), Джейден Кейн (Bruce), Дуглас М. Гриффин (Gus Patrick), Луис Да Силва мл. (Espinoza), Елена Санчес (Dison)
Описание:
Марта застала своего парня за изменой и немного вышла из колеи. И тут она встречает, казалось бы, идеального мужчину. Но её идеал оказывается бывшим киллером, и его прошлое однажды вновь заявляет о себе, причем не самым приятным образом. И едва зародившиеся отношения начинают подвергаться серьёзным испытаниям.
Рейтинг:

MPAA: R - Лицам до 17 лет обязательно присутствие взрослого
Качество: BDRip 1080p
Формат: MKV
Видео: AVC, 1920x804 (2.40:1), 13256 kbps, 23,976 fps, 0,358 bpp
Аудио №1: русский / AC3 / 5.1 / 48 kHz / 384 kbps / |Дубляж, iTunes|
Аудио №2: русский / AC3 / 5.1 / 48 kHz / 640 kbps / |MVO, RecentFilms|
Аудио №3: русский / DTS / 5.1 / 48 kHz / 1509 kbps / 24 bit |AVO, М. Чадов|
Аудио №4: английский / DTS / 5.1 / 48 kHz / 1509 kbps / 24 bit
Навигация по главам: есть
General
Unique ID : 220999608653457657927995773539187704720 (0xA642F9F55FAA8049895D31CBBCC04390)
Complete name : E:\Mr. Right 2015 3xRus BDRip 1080p HDRussia.mkv
Format : Matroska
Format version : Version 4 / Version 2
File size : 11.8 GiB
Duration : 1 h 35 min
Overall bit rate : 17.6 Mb/s
Movie name : Mr. Right 2015 3xRus BDRip 1080p HDRussia
Encoded date : UTC 2017-05-26 22:53:37
Writing application : mkvmerge v12.0.0 ('Trust / Lust') 64bit
Writing library : libebml v1.3.4 + libmatroska v1.4.5
Cover : Yes
Attachments : Cover.jpg

Video
ID : 1
Format : AVC
Format/Info : Advanced Video Codec
Format profile : High@L4.1
Format settings, CABAC : Yes
Format settings, ReFrames : 5 frames
Codec ID : V_MPEG4/ISO/AVC
Duration : 1 h 35 min
Bit rate : 13.3 Mb/s
Width : 1 920 pixels
Height : 804 pixels
Display aspect ratio : 2.40:1
Frame rate mode : Constant
Frame rate : 23.976 (24000/1001) FPS
Color space : YUV
Chroma subsampling : 4:2:0
Bit depth : 8 bits
Scan type : Progressive
Bits/(Pixel*Frame) : 0.358
Stream size : 8.84 GiB (75%)
Title : Mr. Right 2015 3xRus BDRip 1080p HDRussia
Writing library : x264 core 148 r2744kMod b97ae06
Encoding settings : cabac=1 / ref=5 / deblock=1:-3:-3 / analyse=0x3:0x133 / me=umh / subme=10 / psy=1 / fade_compensate=0.00 / psy_rd=1.05:0.00 / mixed_ref=1 / me_range=32 / chroma_me=1 / trellis=2 / 8x8dct=1 / cqm=0 / deadzone=21,11 / fast_pskip=0 / chroma_qp_offset=-2 / threads=12 / lookahead_threads=2 / sliced_threads=0 / nr=0 / decimate=0 / interlaced=0 / bluray_compat=0 / constrained_intra=0 / bframes=8 / b_pyramid=2 / b_adapt=2 / b_bias=0 / direct=3 / weightb=1 / open_gop=0 / weightp=2 / keyint=240 / keyint_min=23 / scenecut=40 / intra_refresh=0 / rc_lookahead=50 / rc=crf / mbtree=0 / crf=16.5000 / qcomp=0.65 / qpmin=0 / qpmax=69 / qpstep=4 / vbv_maxrate=62500 / vbv_bufsize=78125 / crf_max=0.0 / nal_hrd=none / filler=0 / ip_ratio=1.30 / pb_ratio=1.20 / aq=3:0.85
Language : English
Default : Yes
Forced : No

Audio #1
ID : 2
Format : AC-3
Format/Info : Audio Coding 3
Mode extension : CM (complete main)
Format settings, Endianness : Big
Codec ID : A_AC3
Duration : 1 h 35 min
Bit rate mode : Constant
Bit rate : 384 kb/s
Channel(s) : 6 channels
Channel positions : Front: L C R, Side: L R, LFE
Sampling rate : 48.0 kHz
Frame rate : 31.250 FPS (1536 spf)
Compression mode : Lossy
Stream size : 262 MiB (2%)
Title : Dub iTunes AC3 5.1 384
Language : Russian
Default : Yes
Forced : No

Audio #2
ID : 3
Format : AC-3
Format/Info : Audio Coding 3
Mode extension : CM (complete main)
Format settings, Endianness : Big
Codec ID : A_AC3
Duration : 1 h 35 min
Bit rate mode : Constant
Bit rate : 640 kb/s
Channel(s) : 6 channels
Channel positions : Front: L C R, Side: L R, LFE
Sampling rate : 48.0 kHz
Frame rate : 31.250 FPS (1536 spf)
Compression mode : Lossy
Stream size : 437 MiB (4%)
Title : MVO RecentFilms AC3 5.1 640
Language : Russian
Default : No
Forced : No

Audio #3
ID : 4
Format : DTS
Format/Info : Digital Theater Systems
Mode : 16
Format settings, Endianness : Big
Codec ID : A_DTS
Duration : 1 h 35 min
Bit rate mode : Constant
Bit rate : 1 509 kb/s
Channel(s) : 6 channels
Channel positions : Front: L C R, Side: L R, LFE
Sampling rate : 48.0 kHz
Frame rate : 93.750 FPS (512 spf)
Bit depth : 24 bits
Compression mode : Lossy
Stream size : 1.01 GiB (9%)
Title : VO Чадов Михаил (Мат) DTS 5.1 1536
Language : Russian
Default : No
Forced : No

Audio #4
ID : 5
Format : DTS
Format/Info : Digital Theater Systems
Mode : 16
Format settings, Endianness : Big
Codec ID : A_DTS
Duration : 1 h 35 min
Bit rate mode : Constant
Bit rate : 1 509 kb/s
Channel(s) : 6 channels
Channel positions : Front: L C R, Side: L R, LFE
Sampling rate : 48.0 kHz
Frame rate : 93.750 FPS (512 spf)
Bit depth : 24 bits
Compression mode : Lossy
Stream size : 1.01 GiB (9%)
Title : Original DTS 5.1 1536
Language : English
Default : No
Forced : No

Text #1
ID : 6
Format : UTF-8
Codec ID : S_TEXT/UTF8
Codec ID/Info : UTF-8 Plain Text
Title : Forced Songs
Language : Russian
Default : Yes
Forced : No

Text #2
ID : 7
Format : UTF-8
Codec ID : S_TEXT/UTF8
Codec ID/Info : UTF-8 Plain Text
Title : Full (Мат)
Language : Russian
Default : No
Forced : No

Text #3
ID : 8
Format : UTF-8
Codec ID : S_TEXT/UTF8
Codec ID/Info : UTF-8 Plain Text
Title : Full
Language : English
Default : No
Forced : No

Text #4
ID : 9
Format : UTF-8
Codec ID : S_TEXT/UTF8
Codec ID/Info : UTF-8 Plain Text
Title : SDH
Language : English
Default : No
Forced : No

Menu
00:00:00.000 : en:Chapter 01
00:04:37.860 : en:Chapter 02
00:08:25.713 : en:Chapter 03
00:11:40.741 : en:Chapter 04
00:15:48.906 : en:Chapter 05
00:18:59.638 : en:Chapter 06
00:23:35.247 : en:Chapter 07
00:27:29.481 : en:Chapter 08
00:33:51.446 : en:Chapter 09
00:39:11.766 : en:Chapter 10
00:43:59.970 : en:Chapter 11
00:46:09.349 : en:Chapter 12
00:51:56.530 : en:Chapter 13
00:56:39.604 : en:Chapter 14
00:59:27.814 : en:Chapter 15
01:04:24.694 : en:Chapter 16
01:10:16.629 : en:Chapter 17
01:16:40.762 : en:Chapter 18
01:22:23.813 : en:Chapter 19
01:28:02.819 : en:Chapter 20
pb.wtf



Скачать Мой парень – киллер через торрент http://i6.imageban.ru/out/2017/05/28/01546f92b8ee2bf3cbb9d78b05cf8c23.jpg Скачать фильм Мой парень – киллер через торрент бесплантно в хорошем качестве Описание: Марта застала своего парня за изменой и немного вышла из колеи. И тут она встречает, казалось бы, идеального мужчину. Но её идеал ... 10 10 4
Торрент: Зарегистрирован [2017-05-28 15:27] · скачан: 171 раз
Статус: √ проверено
Размер: 11.77 GB
Как cкачать? Как скачать Мой парень – киллер через торрент | qTorrent

% Раздел Тема Автор DL S | L
Фильмы 2015 [DVDrip, WEB-DLRip, HDrip] [ 2.13 GB ] Мой парень – киллер / Mr. Right [2015 BDRip-AVC] -Lexx- Скачать
1 | 0
Фильмы [HD 720p, 1080p] (Хороший звук DUB, MVO) [ 5.89 GB ] Мой парень – киллер / Mr. Right [2015 BDRip 720p] MVO [RecentFilms] AVO [M. Чадов] -Lexx- Скачать
1 | 0
Фильмы 2015 [DVDrip, WEB-DLRip, HDrip] [ 1.42 GB ] Мой парень – киллер / Mr. Right [2015 BDRip] killermax2013 Скачать
1 | 0

28-11-2019 20:33  

Отключить всю рекламу на сайте

    Дорогой пользователь! Огромная просьба, поблагодарите релизера, оцените раздачу и оставьте свои комментарий, если Вы скачали Мой парень – киллер через торрент бесплатно! Внесите свою лепту в развитие PiratBit!
    Комментировать посты могут только пользователи прошедшие не сложную регистрацию
    Показать сообщения:    

    Мой парень – киллер через торрент
    Скачать бесплатно Мой парень – киллер
    Мой парень – киллер скачать торрент
    Мой парень – киллер смотреть онлайн
    Cкачать фильм Мой парень – киллер бесплатно
    Мой парень – киллер скачать торрент в хорошем качестве
    Мой парень – киллер смотреть онлайн бесплатно в хорошем качестве


    Вы не можете начинать темы
    Вы не можете отвечать на сообщения
    Вы не можете редактировать свои сообщения
    Вы не можете удалять свои сообщения
    Вы не можете голосовать в опросах
    Вы не можете прикреплять файлы к сообщениям
    Вы можете скачивать файлы