2 сезон

iTunes

MVO

1

2 сезон

iTunes

iTunes

1 сезон

RePack

30

Новинка

ВАЖНО

ИГРА 18+

pack

RePack

MK11
pack

Легкие деньги

RePack

jed

RePack

fifa19

RePack

RDR2

RePack

NEED FOR SPEED™ PAYBACK

4 сезон

9 сезон

Бесстыжие 9 сезон

Все сериалы

все сериалы на PB.wtf

RePack

FAR CRY 5

Anonymous, доброй ночи, мы не успеваем собрать деньги на оплату серверов за декабрь и январь, помогите нам пожалуйста в это трудное время. В качестве благодарности мы отключим Вам всю рекламу на сайте (укажите свой ник в строку Ваше имя)!

×
  
Magnet ссылка

Подземка / Subway (Люк Бессон) [1985 г., Триллер, BDRip 720p / 60 FPS, MVO ] от R.G. HD-Films pb.wtf

Подземка через торрент pb.wtf

Качают: 1 [ 0 KB/s ]
Размер: 4.31 GB | Добавлен: 3 года 7 мес. назад | Торрент скачан:129 раз
Скачать  

29-05-2017 09:52 Подземка Скачать торрент  

Подземка / Subway
Год выпуска: 1985
Страна: Франция
Жанр: Триллер
Продолжительность: 01:42:20
Перевод: Профессиональный (многоголосый, закадровый)

Режиссер: Люк Бессон

В ролях: Изабель Аджани, Кристофер Ламберт, Ришар Боринже, Мишель Галабрю, Жан-Юг Англад, Жан Буиз, Жан-Пьер Бакри, Жан-Клод Лека, Пьер-Анжи Ле Погам, Эрик Серра, Мишель Д'Оз, Бенуа Режан, Константин Александров, Изабель Садоян, Патрик Перез, Винсент Скименти, Мария Венсан, Джимми Бланш, Брижит Шамаранд, Франсис Лемонье, Жан Рено

Описание: Циник, вор и нарушитель общественного спокойствия Фред промышляет взломом сейфов и прочим криминалом. Однажды в его руки попадают документы, при помощи которых он получает возможность шантажировать загадочную красавицу Хелену. За документами тут же начинают охотиться их владельцы. Скрываясь от своих преследователей, герой прячется в метро, где знакомится со странной субкультурой живущих там людей, и где с ним происходят совершенно неожиданные истории.

Качество: BDRip 720p / 60 FPS
Формат: MKV
Видео кодек: H.264
Аудио кодек: AC3
Видео: x264, 1280 x 544 (2,35:1), 5642 kbps, 60,000 fps, ( 0.135 bpp)
Аудио#1: Русский, AC-3, 48.0 KHz, 6 ch, 384 Kbps ( MVO Amalgama )



скриншот   скриншот   скриншот   скриншот   скриншот  Автор рипа: slaventi-69
Общее
Уникальный идентификатор : 210270016023615944345456295489194411796 (0x9E308832E64D94D392AB4ABC94CFC714)
Полное имя : E:\Subway.(1985).BDRip.720p.(60 Fps).mkv
Формат : Matroska
Версия формата : Version 4 / Version 2
Размер файла : 4,31 Гбайт
Продолжительность : 1 ч. 42 м.
Общий поток : 6030 Кбит/сек
Название фильма : Подземка / Subway (1985) BDRip 720p (60 Fps)
Дата кодирования : UTC 2017-05-29 08:27:47
Программа кодирования : mkvmerge v9.1.0 ('Little Earthquakes') 64bit
Библиотека кодирования : libebml v1.3.3 + libmatroska v1.4.4

Видео
Идентификатор : 1
Формат : AVC
Формат/Информация : Advanced Video Codec
Профиль формата : High@L4.1
Параметр CABAC формата : Да
Параметр ReFrames формата : 4 кадра
Идентификатор кодека : V_MPEG4/ISO/AVC
Продолжительность : 1 ч. 42 м.
Битрейт : 5642 Кбит/сек
Ширина : 1280 пикселей
Высота : 544 пикселя
Соотношение сторон : 2,35:1
Режим частоты кадров : Постоянный
Частота кадров : 60,000 кадров/сек
Цветовое пространство : YUV
Субдискретизация насыщенности : 4:2:0
Битовая глубина : 8 бит
Тип развёртки : Прогрессивная
Бит/(Пиксели*Кадры) : 0.135
Размер потока : 4,03 Гбайт (94%)
Заголовок : slaventi-69 ( R.G. HD-Films | 60 fps )
Библиотека кодирования : x264 core 146 r2538 121396c
Настройки программы : cabac=1 / ref=4 / deblock=1:-1:-1 / analyse=0x3:0x113 / me=umh / subme=9 / psy=1 / psy_rd=1.00:0.00 / mixed_ref=1 / me_range=24 / chroma_me=1 / trellis=2 / 8x8dct=1 / cqm=0 / deadzone=21,11 / fast_pskip=1 / chroma_qp_offset=-2 / threads=8 / lookahead_threads=1 / sliced_threads=0 / nr=0 / decimate=1 / interlaced=0 / bluray_compat=0 / constrained_intra=0 / bframes=4 / b_pyramid=2 / b_adapt=2 / b_bias=0 / direct=1 / weightb=1 / open_gop=0 / weightp=2 / keyint=250 / keyint_min=25 / scenecut=40 / intra_refresh=0 / rc_lookahead=50 / rc=crf / mbtree=1 / crf=17.0 / qcomp=0.60 / qpmin=0 / qpmax=69 / qpstep=4 / vbv_maxrate=14000 / vbv_bufsize=14000 / crf_max=0.0 / nal_hrd=none / filler=0 / ip_ratio=1.40 / aq=1:1.00
Язык : French
Default : Да
Forced : Нет

Аудио
Идентификатор : 2
Формат : AC-3
Формат/Информация : Audio Coding 3
Расширение режима : CM (complete main)
Параметр Endianness формата : Big
Идентификатор кодека : A_AC3
Продолжительность : 1 ч. 42 м.
Вид битрейта : Постоянный
Битрейт : 384 Кбит/сек
Каналы : 6 каналов
Расположение каналов : Front: L C R, Side: L R, LFE
Частота : 48,0 КГц
Частота кадров : 31,250 кадров/сек (1536 spf)
Метод сжатия : С потерями
Размер потока : 281 Мбайт (6%)
Заголовок : Многоголосый (Amalgama)
Язык : Russian
Default : Да
Forced : Нет

pb.wtf



Скачать Подземка через торрент http://ecx.images-amazon.com/images/I/51L5jzIQLML.jpg Скачать фильм Подземка через торрент бесплантно в хорошем качестве Описание: Циник, вор и нарушитель общественного спокойствия Фред промышляет взломом сейфов и прочим криминалом. Однажды в его руки попадают ... 10 10 3
Info! Золотая раздача, скачанное не засчитывается.
Торрент: Зарегистрирован [2017-05-29 09:52] · скачан: 129 раз
Статус: √ проверено
Размер: 4.31 GB
Как cкачать? Как скачать Подземка через торрент | UTorrent



Последний раз редактировалось: slaventi-69 (2017-05-29 10:30), всего редактировалось 1 раз

28-11-2019 20:33  

Отключить всю рекламу на сайте

29-05-2017 10:07 Подземка Скачать торрент  

Один из лучших фильмов Люка.....pb.wtf



    Дорогой пользователь! Огромная просьба, поблагодарите релизера, оцените раздачу и оставьте свои комментарий, если Вы скачали Подземка через торрент бесплатно! Внесите свою лепту в развитие PiratBit!
    Комментировать посты могут только пользователи прошедшие не сложную регистрацию
    Показать сообщения:    

    Подземка через торрент
    Скачать бесплатно Подземка
    Подземка скачать торрент
    Подземка смотреть онлайн
    Cкачать фильм Подземка бесплатно
    Подземка скачать торрент в хорошем качестве
    Подземка смотреть онлайн бесплатно в хорошем качестве


    Вы не можете начинать темы
    Вы не можете отвечать на сообщения
    Вы не можете редактировать свои сообщения
    Вы не можете удалять свои сообщения
    Вы не можете голосовать в опросах
    Вы не можете прикреплять файлы к сообщениям
    Вы можете скачивать файлы