Ссылка на приватное зеркало нашего сайта всего за 1$. Внимание количество ограничено!!!

2 сезон

iTunes

1 сезон

1

2 сезон

2 сезон

iTunes

1 сезон

RePack

30

Новинка

ВАЖНО

ИГРА 18+

pack

RePack

MK11
pack

Забери бонус

RePack

jed

!!Акция!!

Alien_Rage

RePack

fifa19

RePack

Assassins Creed: Odyssey

RePack

NEED FOR SPEED™ PAYBACK

4 сезон

9 сезон

Бесстыжие 9 сезон

Все сериалы

все сериалы на PB.wtf

RePack

FAR CRY 5
  

Страшные сказки / Грошовые ужасы / Бульварные ужасы / Penny Dreadful / Сезон 1 / Серии 1-8 из 8 (Хуан Антонио Байона, Коки Гидройч, Джеймс Хоуз) [2014, ужасы, драма, HDTVRip] MVO [Амедиа] pb.wtf

Страшные сказки через торрент pb.wtf

Размер: 5.59 GB | Добавлен: 3 года 5 мес. назад | Торрент скачан:80 раз
Скачать  

29-05-2017 20:31 Страшные сказки Скачать торрент  

Страшные сказки / Грошовые ужасы / Бульварные ужасы / Penny Dreadful
Год выпуска: 2014
Страна: США, Ирландия, Великобритания
Жанр: ужасы, драма
Продолжительность: 8 ~ 00:55:00
Перевод: Профессиональный многоголосый -
Субтитры: отсутствуют

Режиссер: Хуан Антонио Байона, Коки Гидройч, Джеймс Хоуз

rating

В ролях:

Тимоти Далтон, Ева Грин, Джош Хартнетт, Рори Киннер, Хелен МакКрори, Билли Пайпер, Гарри Тредэвэй, Рив Карни, Алан Армстронг, Рик Берн

Описание:

Сериал возвращает нас ко всеми любимым героям, монстрам и злодеям. В викторианском Лондоне, где происходит действие сериала, никогда не было спокойно и безопасно. Особенно теперь, когда литературные персонажи ожили и наводят ужас на город. Неминуема встреча с вечно молодым Дорианом Греем, героем одноименного романа Оскара Уайльда, доктором Франкенштейном и его зомби-монстром, хладнокровным графом Дракулой, охотником на вампиров и оборотней Ван Хельсингом и множеством других уникальных персонажей.



Качество: HDTVRip
Формат: AVI
Видео кодек: XviD
Аудио кодек: AC3

Видео: ~ 720x400, 1667 kbps, 23,976 fps, 0.243 bit/pixel
Аудио#1: Rus: AC3, 48,0 КГц, 2 ch, 192 kbps

скриншот   скриншот   скриншот   скриншот  

Общее
Полное имя : C:\Penny.Dreadful.(S01)\Penny.Dreadful.S01E01.XviD.Amedia.[qqss44].avi
Формат : AVI
Формат/Информация : Audio Video Interleave
Размер файла : 709 Мбайт
Продолжительность : 52 м. 45 с.
Общий поток : 1878 Кбит/сек
Программа кодирования : VirtualDubMod 1.5.10.3 | www.virtualdub-fr.org || (build 2550/release)
Библиотека кодирования : VirtualDubMod build 2550/release

Видео
Идентификатор : 0
Формат : MPEG-4 Visual
Профиль формата : Advanced Simple@L5
Параметр BVOP формата : 2
Параметр QPel формата : Нет
Параметр GMC формата : Без точки перехода
Параметр матрицы формата : Default (H.263)
Идентификатор кодека : XVID
Идентификатор кодека/Подсказка : XviD
Продолжительность : 52 м. 45 с.
Битрейт : 1677 Кбит/сек
Ширина : 720 пикселей
Высота : 400 пикселей
Соотношение сторон : 16:9
Частота кадров : 23,976 (23976/1000) кадра/сек
Цветовое пространство : YUV
Субдискретизация насыщенности : 4:2:0
Битовая глубина : 8 бит
Тип развёртки : Прогрессивная
Метод сжатия : С потерями
Бит/(Пиксели*Кадры) : 0.243
Размер потока : 633 Мбайт (89%)
Библиотека кодирования : XviD 73

Аудио
Идентификатор : 1
Формат : AC-3
Формат/Информация : Audio Coding 3
Расширение режима : CM (complete main)
Параметр Endianness формата : Big
Идентификатор кодека : 2000
Продолжительность : 52 м. 45 с.
Вид битрейта : Постоянный
Битрейт : 192 Кбит/сек
Каналы : 2 канала
Расположение каналов : Front: L R
Частота : 48,0 КГц
Частота кадров : 31,250 кадров/сек (1536 spf)
Метод сжатия : С потерями
Размер потока : 72,5 Мбайт (10%)
Выравнивание : Разделение по промежуткам
Продолжительность промежутка : 42 мс. (1,00 видеокадр)
Время предзагрузки промежутка : 500 мс.

pb.wtf



Скачать Страшные сказки через торрент http://s019.radikal.ru/i640/1705/0a/132d5ae24cdc.jpg Скачать фильм Страшные сказки через торрент бесплантно в хорошем качестве Описание: Сериал возвращает нас ко всеми любимым героям, монстрам и злодеям. В викторианском Лондоне, где происходит действие сериала, ... 10 10 5
Торрент: Зарегистрирован [2017-05-29 20:31] · скачан: 80 раз
Статус: √ проверено
Размер: 5.59 GB
Как cкачать? Как скачать Страшные сказки через торрент | qTorrent

% Раздел Тема Автор DL S | L
Зарубежные сериалы [ 17.04 GB ] Страшные сказки / Бульварные / Грошовые / Penny Dreadful / Сезон: 1 / Серии: 1-8 из 8 [2014 HDTVRip 720p] MVO [NewStudio] + Original Messa-fan Скачать
1 | 1
Зарубежные сериалы [ 16.33 GB ] Страшные сказки / Грошовые / Бульварные / Penny Dreadful / Сезон: 1 / Серии: 1-8 из 8 [2014 WEBRip 720p] MVO [TVShows] bober100 Скачать
1 | 0
Зарубежные сериалы [ 24.32 GB ] Страшные сказки / Грошовые / Бульварные / Penny Dreadful / Сезон: 1 / Серии: 1-8 из 8 [2014 WEBRip 1080p] MVO [TVShows] bober100 Скачать
1 | 0

28-11-2019 20:33  

Отключить всю рекламу на сайте

30-05-2017 16:10 Страшные сказки Скачать торрент  

великолепно!pb.wtf



30-05-2017 16:24 Страшные сказки Скачать торрент  

Смотрел в прошлом году все сезоны - впечатлил. Даже моей привередливой жене понравился этот сериал.pb.wtf



    Дорогой пользователь! Огромная просьба, поблагодарите релизера, оцените раздачу и оставьте свои комментарий, если Вы скачали Страшные сказки через торрент бесплатно! Внесите свою лепту в развитие PiratBit!
    Комментировать посты могут только пользователи прошедшие не сложную регистрацию
    Показать сообщения:    

    Страшные сказки через торрент
    Скачать бесплатно Страшные сказки
    Страшные сказки скачать торрент
    Страшные сказки смотреть онлайн
    Cкачать фильм Страшные сказки бесплатно
    Страшные сказки скачать торрент в хорошем качестве
    Страшные сказки смотреть онлайн бесплатно в хорошем качестве


    Вы не можете начинать темы
    Вы не можете отвечать на сообщения
    Вы не можете редактировать свои сообщения
    Вы не можете удалять свои сообщения
    Вы не можете голосовать в опросах
    Вы не можете прикреплять файлы к сообщениям
    Вы можете скачивать файлы