2 сезон

iTunes

MVO

1

2 сезон

iTunes

iTunes

1 сезон

RePack

30

Новинка

ВАЖНО

ИГРА 18+

pack

RePack

MK11
pack

Легкие деньги

RePack

jed

RePack

fifa19

RePack

RDR2

RePack

NEED FOR SPEED™ PAYBACK

4 сезон

9 сезон

Бесстыжие 9 сезон

Все сериалы

все сериалы на PB.wtf

RePack

FAR CRY 5

Anonymous, доброй ночи, мы не успеваем собрать деньги на оплату серверов за декабрь и январь, помогите нам пожалуйста в это трудное время. В качестве благодарности мы отключим Вам всю рекламу на сайте (укажите свой ник в строку Ваше имя)!

×
  
Magnet ссылка

Демон внутри / Вскрытие Джейн Доу / The Autopsy of Jane Doe (Андре Овредал ) [2016, ужасы, детектив, BDRip 1080p / 60fps] MVO+2xVO pb.wtf

Демон внутри через торрент pb.wtf

Размер: 13.06 GB | Добавлен: 3 года 7 мес. назад | Торрент скачан:148 раз
Скачать  

30-05-2017 06:01 Демон внутри Скачать торрент  

Демон внутри / Вскрытие Джейн ДоуThe Autopsy of Jane Doe«Есть вещи страшнее смерти» Год выпуска: 2016
Страна: Великобритания, США
Жанр: ужасы, детектив
Продолжительность: 01:26:22
Перевод: Профессиональный многоголосый закадровый
Субтитры: русские, английские
Режиссер: Андре Овредал
В ролях:
Брайан Кокс (Tommy), Эмиль Хирш (Austin), Офелия Ловибонд (Emma), Майкл МакЭлхаттон (Sheriff Burke), Олуэн Катрин Келли (Jane Doe), Джейн Перри (Lieutenant Wade), Паркер Сойерс (Trooper Cole), Мэри Дадди (Irene Daniels), Марк Феникс (Louis Tannis), Сидни (Stanley the Cat), Ив О’Хара (Deputy Ballard, в титрах не указан)
Описание:
Патологоанатомы маленького городка получают тело жертвы таинственного убийства - красивой и молодой девушки без видимой причины смерти. Они пытаются выяснить, кто она и как умерла, обнаруживая все более причудливые подсказки, которые ведут к тайнам её жизни и смерти.
Рейтинг:

MPAA: R - Лицам до 17 лет обязательно присутствие взрослого
Качество: BDRip 1080p
Формат: MKV
Видео: AVC, 1920x800 (2.40:1), 19999 kbps, 59,940 fps, 0,217 bpp
Аудио №1: русский / AC3 / 5.1 / 48 kHz / 384 kbps / |Профессиональный многоголосый закадровый - AlexFilm|
Аудио №2: русский / AC3 / 5.1 / 48 kHz / 384 kbps / |Любительский одноголосый - BadBajo|
Аудио №3: русский / AC3 / 5.1 / 48 kHz / 448 kbps / |Любительский одноголосый - Solod|
Аудио №4: английский / AC3 / 5.1 / 48 kHz / 448 kbps /
Навигация по главам: есть
General
Unique ID : 193539241826068856215533156479472508866 (0x919A4D580B1030E1925A6BC7D8A41FC2)
Complete name : The Autopsy of Jane Doe (2016) BDRip 1080p_60 fps .mkv
Format : Matroska
Format version : Version 4 / Version 2
File size : 13.1 GiB
Duration : 1 h 26 min
Overall bit rate : 21.6 Mb/s
Movie name : Демон внутри / Вскрытие Джейн Доу / The Autopsy of Jane Doe (2016) BDRip 1080p | 60 fps
Encoded date : UTC 2017-04-15 19:01:02
Writing application : mkvmerge v7.6.0 ('Garden of Dreams') 32bit built on Feb 8 2015 12:51:39
Writing library : libebml v1.3.1 + libmatroska v1.4.2
Cover : Yes
Attachments : Cover.png

Video
ID : 1
Format : AVC
Format/Info : Advanced Video Codec
Format profile : High@L4.1
Format settings, CABAC : Yes
Format settings, ReFrames : 5 frames
Codec ID : V_MPEG4/ISO/AVC
Duration : 1 h 26 min
Bit rate : 20.0 Mb/s
Width : 1 920 pixels
Height : 800 pixels
Display aspect ratio : 2.40:1
Frame rate mode : Constant
Frame rate : 59.940 (60000/1001) FPS
Color space : YUV
Chroma subsampling : 4:2:0
Bit depth : 8 bits
Scan type : Progressive
Bits/(Pixel*Frame) : 0.217
Stream size : 12.0 GiB (92%)
Writing library : x264 core 148 r2638 7599210
Encoding settings : cabac=1 / ref=5 / deblock=1:-3:-3 / analyse=0x3:0x113 / me=umh / subme=8 / psy=1 / psy_rd=1.00:0.25 / mixed_ref=1 / me_range=32 / chroma_me=1 / trellis=1 / 8x8dct=1 / cqm=0 / deadzone=6,6 / fast_pskip=1 / chroma_qp_offset=-4 / threads=12 / lookahead_threads=2 / sliced_threads=0 / nr=0 / decimate=0 / interlaced=0 / bluray_compat=0 / constrained_intra=0 / bframes=3 / b_pyramid=2 / b_adapt=2 / b_bias=0 / direct=3 / weightb=1 / open_gop=0 / weightp=2 / keyint=599 / keyint_min=59 / scenecut=40 / intra_refresh=0 / rc_lookahead=50 / rc=2pass / mbtree=1 / bitrate=19999 / ratetol=1.0 / qcomp=0.80 / qpmin=0 / qpmax=69 / qpstep=4 / cplxblur=20.0 / qblur=0.5 / vbv_maxrate=62500 / vbv_bufsize=78125 / nal_hrd=none / filler=0 / ip_ratio=1.10 / aq=1:0.50
Default : Yes
Forced : No

Audio #1
ID : 2
Format : AC-3
Format/Info : Audio Coding 3
Mode extension : CM (complete main)
Format settings, Endianness : Big
Codec ID : A_AC3
Duration : 1 h 26 min
Bit rate mode : Constant
Bit rate : 384 kb/s
Channel(s) : 6 channels
Channel positions : Front: L C R, Side: L R, LFE
Sampling rate : 48.0 kHz
Frame rate : 31.250 FPS (1536 spf)
Compression mode : Lossy
Stream size : 237 MiB (2%)
Title : Профессиональный многоголосый закадровый - AlexFilm
Language : Russian
Default : Yes
Forced : No

Audio #2
ID : 3
Format : AC-3
Format/Info : Audio Coding 3
Mode extension : CM (complete main)
Format settings, Endianness : Big
Codec ID : A_AC3
Duration : 1 h 26 min
Bit rate mode : Constant
Bit rate : 384 kb/s
Channel(s) : 6 channels
Channel positions : Front: L C R, Side: L R, LFE
Sampling rate : 48.0 kHz
Frame rate : 31.250 FPS (1536 spf)
Compression mode : Lossy
Stream size : 237 MiB (2%)
Title : Любительский одноголосый - BadBajo
Language : Russian
Default : No
Forced : No

Audio #3
ID : 4
Format : AC-3
Format/Info : Audio Coding 3
Mode extension : CM (complete main)
Format settings, Endianness : Big
Codec ID : A_AC3
Duration : 1 h 26 min
Bit rate mode : Constant
Bit rate : 448 kb/s
Channel(s) : 6 channels
Channel positions : Front: L C R, Side: L R, LFE
Sampling rate : 48.0 kHz
Frame rate : 31.250 FPS (1536 spf)
Compression mode : Lossy
Stream size : 277 MiB (2%)
Title : Любительский одноголосый - Solod
Language : Russian
Default : No
Forced : No

Audio #4
ID : 5
Format : AC-3
Format/Info : Audio Coding 3
Mode extension : CM (complete main)
Format settings, Endianness : Big
Codec ID : A_AC3
Duration : 1 h 26 min
Bit rate mode : Constant
Bit rate : 448 kb/s
Channel(s) : 6 channels
Channel positions : Front: L C R, Side: L R, LFE
Sampling rate : 48.0 kHz
Frame rate : 31.250 FPS (1536 spf)
Compression mode : Lossy
Stream size : 277 MiB (2%)
Title : Eng
Language : English
Default : No
Forced : No

Text #1
ID : 6
Format : UTF-8
Codec ID : S_TEXT/UTF8
Codec ID/Info : UTF-8 Plain Text
Duration : 1 h 21 min
Bit rate : 45 b/s
Count of elements : 704
Stream size : 27.3 KiB (0%)
Language : Russian
Default : No
Forced : No

Text #2
ID : 7
Format : UTF-8
Codec ID : S_TEXT/UTF8
Codec ID/Info : UTF-8 Plain Text
Duration : 1 h 18 min
Bit rate : 34 b/s
Count of elements : 706
Stream size : 20.1 KiB (0%)
Language : English
Default : No
Forced : No

Menu
00:00:00.000 : :1
00:10:03.603 : :2
00:20:03.494 : :3
00:30:30.203 : :4
00:40:25.923 : :5
00:50:23.562 : :6
01:00:38.343 : :7
01:09:57.526 : :8
01:21:45.025 : :9
• Норвежский режиссер Андре Овредал был вдохновлен сделать фильм ужасов после посещения показа фильма «Заклятие». Он немедленно позвонил своим агентам и сказал им, что они должны попытаться найти хороший сценарий ужасов для него. Через месяц они показали ему этот сценарий, и он сразу же заинтересовался.
• Мартин Шин был первоначально заявлен на роль Томми, но ему пришлось отказаться из-за несогласованности расписаний съемок. Он был заменен Брайаном Коксом.
• Песня, играющая на протяжении всего фильма, так же играла во «Флинстоунах». «Let the Sunshine in» в исполнении Pebbles.
• Имена Джон Доу (John Doe) и Джейн Доу (Jane Doe) — принятый в английском праве термин для обозначения неизвестного или анонимного участника процесса, зачастую истца. Позже термин перешел в медицину, где его используют для обозначения безымянного трупа или пациента без данных о личности (амнезия, бессознательное состояние).
• Любимая сцена режиссера в фильме — сцена в лифте, когда главные герои обсуждают смерть матери. Он сказал: «Я только поставил камеру, и мы наблюдали фантастическое выступление Брайана Кокса и Эмиля Хирша». Сцена, которой он больше всего гордился, как режиссер, была сцена раскрытия символов под кожей Джейн Доу. Как было заявлено на фестивале «Монстры кино» в Стокгольме 2016 года.
• Когда мы впервые видим Эмму (в коридоре возле морга), она носит колготки. Когда она заходит в морг ее ноги голые.
• После того, как тело Джейн Доу вносится в морге на тележке, Эмма уходит. На внешнем кадре, показывающим, как машина Эммы уезжает прочь, видно, что дорога заблокирована. Там нет места для скорой помощи или любого другого транспортного средства, чтобы оно смогло проехать мимо машины Эммы, и при этом нет достаточного места, чтобы подтолкнуть тележку к дому.


Скриншотыскриншот   скриншот   скриншот   скриншот   скриншот  pb.wtf



Скачать Демон внутри через торрент http://i90.fastpic.ru/big/2017/0418/81/0754cceaa1730d4f77eba6d11133ad81.png Скачать фильм Демон внутри через торрент бесплантно в хорошем качестве Описание: Патологоанатомы маленького городка получают тело жертвы таинственного убийства - красивой и молодой девушки без видимой причины ... 9.8 10 8
Торрент: Зарегистрирован [2017-05-30 06:01] · скачан: 148 раз
Статус: √ проверено
Размер: 13.06 GB
Как cкачать? Как скачать Демон внутри через торрент | UTorrent



Последний раз редактировалось: sheker187 (2017-06-12 06:39), всего редактировалось 1 раз

28-11-2019 20:33  

Отключить всю рекламу на сайте

30-05-2017 08:52 Демон внутри Скачать торрент  

фильм pb.wtf



    Дорогой пользователь! Огромная просьба, поблагодарите релизера, оцените раздачу и оставьте свои комментарий, если Вы скачали Демон внутри через торрент бесплатно! Внесите свою лепту в развитие PiratBit!
    Комментировать посты могут только пользователи прошедшие не сложную регистрацию
    Показать сообщения:    

    Демон внутри через торрент
    Скачать бесплатно Демон внутри
    Демон внутри скачать торрент
    Демон внутри смотреть онлайн
    Cкачать фильм Демон внутри бесплатно
    Демон внутри скачать торрент в хорошем качестве
    Демон внутри смотреть онлайн бесплатно в хорошем качестве


    Вы не можете начинать темы
    Вы не можете отвечать на сообщения
    Вы не можете редактировать свои сообщения
    Вы не можете удалять свои сообщения
    Вы не можете голосовать в опросах
    Вы не можете прикреплять файлы к сообщениям
    Вы можете скачивать файлы