Ссылка на приватное зеркало нашего сайта всего за 1$. Внимание количество ограничено!!!

2 сезон

iTunes

1 сезон

1

iTunes

iTunes

iTunes

1 сезон

RePack

30

ИГРА 18+

pack

ВАЖНО

!!Акция!!

Alien_RageХит недели

RePack

MK11
pack

Забери бонус

RePack

jed

!!Акция!!

Alien_Rage

RePack

fifa19

RePack

Assassins Creed: Odyssey

RePack

NEED FOR SPEED™ PAYBACK

4 сезон

9 сезон

Бесстыжие 9 сезон

Все сериалы

все сериалы на PB.wtf

RePack

FAR CRY 5
  

Бравадос / The Bravados (Генри Кинг) [1958, драма, вестерн, BDRip 1080p by msltel] DVO pb.wtf

Бравадос через торрент pb.wtf

Размер: 10.69 GB | Добавлен: 3 года 4 мес. назад | Торрент скачан:8 раз
Скачать  

30-05-2017 12:27 Бравадос Скачать торрент  

Название: Бравадос
Оригинальное название: The Bravados
Год выпуска: 1958
Страна: США
Жанр: драма, вестерн
Продолжительность: 01:37:46
Перевод: профессиональный двухголосый

Режиссёр: Генри Кинг

В ролях: Грегори Пек, Джоан Коллинз, Стивен Бойд, Альберт Сэлми, Генри Сильва, Кэтлин Галлант, Бэрри Коу, Джордж Восковек, Герберт Радли, Ли Ван Клиф

Описание: Действие фильма происходит на диком американском Западе. Континент ещё слабо освоен, и среди его жителей царят дикие нравы. У главного героя фильма Джима Дугласа произошла серьёзная трагедия — четверо бандитов убили его жену. Он хочет отомстить им и узнаёт, что в соседнем городе их поймали, держат в тюрьме и хотят казнить. Джим спешит туда, чтобы присутствовать при этом. Но каким-то образом бандитам удаётся убежать из тюрьмы. Горожане в панике и просят храброго Джима Дугласа помочь им снова захватить преступников. Джим уже не верит полиции, он полон желания мести и хочет самостоятельно уничтожить злодеев, осуществив таким образом справедливое по его мнению правосудие... Фильм является экранизацией произведения Фрэнка О’Рурка.



Качество: BDRip 1080p
Формат: MKV
Видео: MPEG-4 AVC, 14.7 Mбит/с, 1920x800
Аудио 1: русский, AC3, 192 kbps, 2 ch [профессиональный двухголосый]
Аудио 2: английский, DTS, 768 kbps, 5 ch, 48 kHz [оригинал]
Имеются неименованные главы/чаптеры.
Общее
Уникальный идентификатор : 180462035377100649608728437170744156237 (0x87C3B9495EA44415B306F3E59085604D)
Полное имя : D:\Video\Бравадос.1958.BDRip.1080p by msltel.mkv
Формат : Matroska
Версия формата : Version 4 / Version 2
Размер файла : 10,7 Гбайт
Продолжительность : 1 ч. 37 м.
Общий поток : 15,7 Мбит/сек
Название фильма : Rip by msltel
Дата кодирования : UTC 2017-05-30 02:56:16
Программа кодирования : mkvmerge v8.2.0 ('World of Adventure') 64bit
Библиотека кодирования : libebml v1.3.1 + libmatroska v1.4.2

Видео
Идентификатор : 1
Формат : AVC
Формат/Информация : Advanced Video Codec
Профиль формата : High@L4.1
Параметр CABAC формата : Да
Параметр ReFrames формата : 4 кадра
Идентификатор кодека : V_MPEG4/ISO/AVC
Продолжительность : 1 ч. 37 м.
Битрейт : 14,7 Мбит/сек
Ширина : 1920 пикселей
Высота : 800 пикселей
Соотношение сторон : 2,40:1
Режим частоты кадров : Постоянный
Частота кадров : 23,976 (24000/1001) кадра/сек
Цветовое пространство : YUV
Субдискретизация насыщенности : 4:2:0
Битовая глубина : 8 бит
Тип развёртки : Прогрессивная
Бит/(Пиксели*Кадры) : 0.399
Размер потока : 10,0 Гбайт (94%)
Библиотека кодирования : x264 core 146 r2538 121396c
Настройки программы : cabac=1 / ref=4 / deblock=1:-3:-2 / analyse=0x3:0x113 / me=umh / subme=11 / psy=1 / psy_rd=1.00:0.15 / mixed_ref=1 / me_range=32 / chroma_me=1 / trellis=2 / 8x8dct=1 / cqm=0 / deadzone=21,11 / fast_pskip=0 / chroma_qp_offset=-3 / threads=6 / lookahead_threads=1 / sliced_threads=0 / nr=0 / decimate=1 / interlaced=0 / bluray_compat=0 / constrained_intra=0 / bframes=11 / b_pyramid=2 / b_adapt=2 / b_bias=0 / direct=1 / weightb=1 / open_gop=0 / weightp=2 / keyint=230 / keyint_min=23 / scenecut=40 / intra_refresh=0 / rc_lookahead=40 / rc=crf / mbtree=0 / crf=18.4 / qcomp=0.60 / qpmin=0 / qpmax=69 / qpstep=4 / vbv_maxrate=62500 / vbv_bufsize=78125 / crf_max=0.0 / nal_hrd=none / filler=0 / ip_ratio=1.40 / pb_ratio=1.30 / aq=1:1.00
Язык : English
Default : Да
Forced : Нет

Аудио #1
Идентификатор : 2
Формат : AC-3
Формат/Информация : Audio Coding 3
Параметр Endianness формата : Big
Идентификатор кодека : A_AC3
Продолжительность : 1 ч. 37 м.
Вид битрейта : Постоянный
Битрейт : 192 Кбит/сек
Каналы : 2 канала
Расположение каналов : Front: L R
Частота : 48,0 КГц
Частота кадров : 31,250 кадров/сек (1536 spf)
Битовая глубина : 16 бит
Метод сжатия : С потерями
Размер потока : 134 Мбайт (1%)
Заголовок : DVO
Язык : Russian
ServiceKind/String : Complete Main
Default : Да
Forced : Нет

Аудио #2
Идентификатор : 3
Формат : DTS
Формат/Информация : Digital Theater Systems
Режим : 16
Параметр Endianness формата : Big
Идентификатор кодека : A_DTS
Продолжительность : 1 ч. 37 м.
Вид битрейта : Постоянный
Битрейт : 768 Кбит/сек
Каналы : 5 каналов
Расположение каналов : Front: L C R, Side: L R
Частота : 48,0 КГц
Частота кадров : 93,750 кадра/сек (512 spf)
Битовая глубина : 16 бит
Метод сжатия : С потерями
Размер потока : 537 Мбайт (5%)
Заголовок : original
Язык : English
Default : Нет
Forced : Нет

Меню
00:00:00.000 : :Chapter 01
00:02:19.055 : :Chapter 02
00:09:58.264 : :Chapter 03
00:21:18.027 : :Chapter 04
00:29:35.023 : :Chapter 05
00:39:56.895 : :Chapter 06
00:49:32.636 : :Chapter 07
00:58:30.881 : :Chapter 08
01:04:57.102 : :Chapter 09
01:15:24.352 : :Chapter 10
01:23:33.383 : :Chapter 11
pb.wtf



Скачать Бравадос через торрент http://s018.radikal.ru/i511/1705/ff/dd13d2e1163f.jpg Скачать фильм Бравадос через торрент бесплантно в хорошем качестве Описание: Действие фильма происходит на диком американском Западе. Континент ещё слабо освоен, и среди его жителей царят дикие нравы. У ... 5 10 1
Info! Золотая раздача, скачанное не засчитывается.
Торрент: Зарегистрирован [2017-05-30 12:27] · скачан: 8 раз
Статус: √ проверено
Размер: 10.69 GB
Как cкачать? Как скачать Бравадос через торрент | qTorrent

% Раздел Тема Автор DL S | L
Фильмы [HD 720p, 1080p] (Хороший звук DUB, MVO) [ 3.88 GB ] Бравадос / The Bravados [1958 BDRip 720p by msltel] DVO msltel Скачать
1 | 0

28-11-2019 20:33  

Отключить всю рекламу на сайте

    Дорогой пользователь! Огромная просьба, поблагодарите релизера, оцените раздачу и оставьте свои комментарий, если Вы скачали Бравадос через торрент бесплатно! Внесите свою лепту в развитие PiratBit!
    Комментировать посты могут только пользователи прошедшие не сложную регистрацию
    Показать сообщения:    

    Бравадос через торрент
    Скачать бесплатно Бравадос
    Бравадос скачать торрент
    Бравадос смотреть онлайн
    Cкачать фильм Бравадос бесплатно
    Бравадос скачать торрент в хорошем качестве
    Бравадос смотреть онлайн бесплатно в хорошем качестве


    Вы не можете начинать темы
    Вы не можете отвечать на сообщения
    Вы не можете редактировать свои сообщения
    Вы не можете удалять свои сообщения
    Вы не можете голосовать в опросах
    Вы не можете прикреплять файлы к сообщениям
    Вы можете скачивать файлы