2 сезон

iTunes

MVO

1

2 сезон

iTunes

iTunes

1 сезон

RePack

30

Новинка

ВАЖНО

ИГРА 18+

pack

RePack

MK11
pack

Легкие деньги

RePack

jed

RePack

fifa19

RePack

RDR2

RePack

NEED FOR SPEED™ PAYBACK

4 сезон

9 сезон

Бесстыжие 9 сезон

Все сериалы

все сериалы на PB.wtf

RePack

FAR CRY 5

Anonymous, доброй ночи, мы не успеваем собрать деньги на оплату серверов за декабрь и январь, помогите нам пожалуйста в это трудное время. В качестве благодарности мы отключим Вам всю рекламу на сайте (укажите свой ник в строку Ваше имя)!

×
  
Magnet ссылка

Неприкасаемые / Les Lyonnais (Оливье Маршаль) [2011 г., Драма, криминал, BDRip 720p / 60 FPS, Дубляж Лицензия] от R.G. HD-Films pb.wtf

Неприкасаемые через торрент pb.wtf

Размер: 3.87 GB | Добавлен: 3 года 7 мес. назад | Торрент скачан:153 раза
Скачать  

30-05-2017 17:04 Неприкасаемые Скачать торрент  

Неприкасаемые / Les Lyonnais
Год выпуска: 2011
Страна: Франция, LGM Productiosn
Жанр: Драма, криминал
Продолжительность: 01:42:06
Перевод: Дубляж Лицензия

Режиссер: Оливье Маршаль

В ролях: Жерар Ланвен, Чеки Карио, Даниэль Дюваль, Патрик Каталифо, Франсуа Леванталь, Франсис Рено, Лайонел Астье, Валерия Кавалли, Эстелл Скорник

Описание: Детство Эдмонда Видаля прошло в нищете в цыганском таборе. Но он знает, что такое истинные семейные ценности и преданная дружба. Он всегда держит своё слово, даже если даёт его своему врагу. Он верный муж и настоящий друг, готовый всегда помочь в беде. И он не любит проливать кровь зря. Именно он стоял у истоков создания самой известной группировки, которая лихо грабила банки во Франции в начале 70-х…

Качество: BDRip 720p / 60 FPS
Формат: MKV
Видео кодек: H.264
Аудио кодек: AC3
Видео: x264, 1280 x 544 (2,35:1), 5035 kbps, 60,000 fps, ( 0.121 bpp)
Аудио#1: Русский, AC-3, 48.0 KHz, 6 ch, 384 Kbps

скриншот   скриншот   скриншот   скриншот   скриншот  
Автор рипа: slaventi-69
Общее
Уникальный идентификатор : 247245093363504332803834256228885146483 (0xBA01AC42985208159844A30EB4872B73)
Полное имя : E:\Temp\Les.Lyonnais.(2011).BDRip.720p.(60 Fps).mkv
Формат : Matroska
Версия формата : Version 4 / Version 2
Размер файла : 3,87 Гбайт
Продолжительность : 1 ч. 42 м.
Общий поток : 5423 Кбит/сек
Название фильма : Неприкасаемые / Les Lyonnais (2011) BDRip 720p (60 Fps)
Дата кодирования : UTC 2017-05-30 16:25:04
Программа кодирования : mkvmerge v9.1.0 ('Little Earthquakes') 64bit
Библиотека кодирования : libebml v1.3.3 + libmatroska v1.4.4

Видео
Идентификатор : 1
Формат : AVC
Формат/Информация : Advanced Video Codec
Профиль формата : High@L4.1
Параметр CABAC формата : Да
Параметр ReFrames формата : 4 кадра
Идентификатор кодека : V_MPEG4/ISO/AVC
Продолжительность : 1 ч. 42 м.
Битрейт : 5035 Кбит/сек
Ширина : 1280 пикселей
Высота : 544 пикселя
Соотношение сторон : 2,35:1
Режим частоты кадров : Постоянный
Частота кадров : 60,000 кадров/сек
Цветовое пространство : YUV
Субдискретизация насыщенности : 4:2:0
Битовая глубина : 8 бит
Тип развёртки : Прогрессивная
Бит/(Пиксели*Кадры) : 0.121
Размер потока : 3,59 Гбайт (93%)
Заголовок : slaventi-69 ( R.G. HD-Films | 60 fps )
Библиотека кодирования : x264 core 130 r2273 b3065e6
Настройки программы : cabac=1 / ref=4 / deblock=1:-1:-1 / analyse=0x3:0x113 / me=umh / subme=9 / psy=1 / psy_rd=1.00:0.00 / mixed_ref=1 / me_range=20 / chroma_me=1 / trellis=1 / 8x8dct=1 / cqm=0 / deadzone=21,11 / fast_pskip=1 / chroma_qp_offset=-2 / threads=8 / lookahead_threads=1 / sliced_threads=0 / nr=0 / decimate=1 / interlaced=0 / bluray_compat=0 / constrained_intra=0 / bframes=4 / b_pyramid=2 / b_adapt=2 / b_bias=0 / direct=3 / weightb=1 / open_gop=0 / weightp=2 / keyint=250 / keyint_min=25 / scenecut=40 / intra_refresh=0 / rc_lookahead=50 / rc=crf / mbtree=1 / crf=15.5 / qcomp=0.60 / qpmin=0 / qpmax=69 / qpstep=4 / ip_ratio=1.40 / aq=1:1.00
Язык : French
Default : Да
Forced : Нет

Аудио
Идентификатор : 2
Формат : AC-3
Формат/Информация : Audio Coding 3
Расширение режима : CM (complete main)
Параметр Endianness формата : Big
Идентификатор кодека : A_AC3
Продолжительность : 1 ч. 42 м.
Вид битрейта : Постоянный
Битрейт : 384 Кбит/сек
Каналы : 6 каналов
Расположение каналов : Front: L C R, Side: L R, LFE
Частота : 48,0 КГц
Частота кадров : 31,250 кадров/сек (1536 spf)
Метод сжатия : С потерями
Размер потока : 280 Мбайт (7%)
Заголовок : DUB
Язык : Russian
Default : Да
Forced : Нет

pb.wtf



Скачать Неприкасаемые через торрент http://lostpic.net/images/995b057bf117e1d7d007a52bc8dcdc67.png Скачать фильм Неприкасаемые через торрент бесплантно в хорошем качестве Описание: Детство Эдмонда Видаля прошло в нищете в цыганском таборе. Но он знает, что такое истинные семейные ценности и преданная дружба. ... 10 10 7
Info! Золотая раздача, скачанное не засчитывается.
Торрент: Зарегистрирован [2017-05-30 17:04] · скачан: 153 раз
Статус: √ проверено
Размер: 3.87 GB
Как cкачать? Как скачать Неприкасаемые через торрент | UTorrent

28-11-2019 20:33  

Отключить всю рекламу на сайте

30-05-2017 20:16 Неприкасаемые Скачать торрент  

хороший фильмpb.wtf



31-05-2017 19:17 Неприкасаемые Скачать торрент  

вообще бомба!!!pb.wtf



11-06-2017 08:13 Неприкасаемые Скачать торрент  

ща заценимpb.wtf



    Дорогой пользователь! Огромная просьба, поблагодарите релизера, оцените раздачу и оставьте свои комментарий, если Вы скачали Неприкасаемые через торрент бесплатно! Внесите свою лепту в развитие PiratBit!
    Комментировать посты могут только пользователи прошедшие не сложную регистрацию
    Показать сообщения:    

    Неприкасаемые через торрент
    Скачать бесплатно Неприкасаемые
    Неприкасаемые скачать торрент
    Неприкасаемые смотреть онлайн
    Cкачать фильм Неприкасаемые бесплатно
    Неприкасаемые скачать торрент в хорошем качестве
    Неприкасаемые смотреть онлайн бесплатно в хорошем качестве


    Вы не можете начинать темы
    Вы не можете отвечать на сообщения
    Вы не можете редактировать свои сообщения
    Вы не можете удалять свои сообщения
    Вы не можете голосовать в опросах
    Вы не можете прикреплять файлы к сообщениям
    Вы можете скачивать файлы