Ссылка на приватное зеркало нашего сайта всего за 1$. Внимание количество ограничено!!!

2 сезон

iTunes

1 сезон

1

2 сезон

2 сезон

iTunes

1 сезон

RePack

30

Ultimate

ВАЖНО

ИГРА 18+

pack

RePack

MK11
pack

Забери бонус

RePack

jed

!!Акция!!

Alien_Rage

RePack

fifa19

RePack

Assassins Creed: Odyssey

RePack

NEED FOR SPEED™ PAYBACK

4 сезон

9 сезон

Бесстыжие 9 сезон

Все сериалы

все сериалы на PB.wtf

RePack

FAR CRY 5
  

Шпионки / D.E.B.S. (Анджела Робинсон ) [2004, боевик, мелодрама, комедия, WEB-DL 720p] Профессиональный (многоголосый) pb.wtf

Шпионки через торрент pb.wtf

Размер: 3.09 GB | Добавлен: 3 года 6 мес. назад | Торрент скачан:76 раз
Скачать  

31-05-2017 04:09 Шпионки Скачать торрент  

Шпионки / D.E.B.S.

Год выпуска: 2004
Страна: США
Жанр: боевик, мелодрама, комедия

Продолжительность: 01:31:23
Перевод: Профессиональный (многоголосый)
Субтитры: английские,
Режиссер: Анджела Робинсон
В ролях: Сара Фостер (Amy), Джордана Брюстер (Lucy Diamond), Миган Гуд (Max), Девон Аоки (Dominique), Джилл Ричи (Janet), Джофф Стульц (Bobby), Джимми Симпсон (Scud), Джессика Коффил (Ninotchka), Кристина Кирк (Madeleine), Холланд Тейлор (Ms. Petrie), Майкл Кларк Дункан (Mr. Phipps), Дж.Б. Гьюмен мл. (Dustin)
Описание:
Пожилые мачо с лицензией на убийство отправляются на пенсию: судьбы мира отныне решают крутые девчонки из суперсекретной спецслужбы D.E.B.S.! Такие, как старшеклассницы Эми, Доминик, Джанет и Макс, отобранные для борьбы со злом на основе самых передовых тестов, выявивших у подруг все таланты прирожденных шпионок: острую клептоманию, неограниченную способность к вранью и адский сексапил.
Рейтинг:

MPAA: PG-13 - Детям до 13 лет просмотр не желателен
Качество: WEB-DL 720p
Формат: MKV
Видео: AVC, 1280x718 (16:9), 4013 kbps, 23,976 fps, 0,182 bpp
Аудио №1: русский / AC3 / 5.1 / 48 kHz / 448 kbps / ||
Аудио №2: английский / AC3 / 5.1 / 48 kHz / 384 kbps /
Навигация по главам: есть

General
Unique ID : 186053090358283323436029598060769289324 (0x8BF88594779C9B5185DB80D26F61A46C)
Complete name : D:\Proba\D.E.B.S.2004.720p.WEB-DL.DD5.1.H264-FGT\D.E.B.S.2004.720p.WEB-DL.DD5.1.mkv
Format : Matroska
Format version : Version 4 / Version 2
File size : 3.09 GiB
Duration : 1 h 31 min
Overall bit rate : 4 847 kb/s
Movie name : D.E.B.S.2004.720p.WEB-DL.DD5.1.H264-FGT
Encoded date : UTC 2017-05-31 03:28:13
Writing application : mkvmerge v12.0.0 ('Trust / Lust') 64bit
Writing library : libebml v1.3.4 + libmatroska v1.4.5
Cover : Yes
Attachments : cover_land.jpg / small_cover.jpg / small_cover_land.jpg / cover.jpg

Video
ID : 1
Format : AVC
Format/Info : Advanced Video Codec
Format profile : High@L3.1
Format settings, CABAC : No
Format settings, ReFrames : 2 frames
Codec ID : V_MPEG4/ISO/AVC
Duration : 1 h 31 min
Bit rate : 4 013 kb/s
Width : 1 280 pixels
Height : 718 pixels
Display aspect ratio : 16:9
Frame rate mode : Constant
Frame rate : 23.976 (23976/1000) FPS
Color space : YUV
Chroma subsampling : 4:2:0
Bit depth : 8 bits
Scan type : Progressive
Bits/(Pixel*Frame) : 0.182
Stream size : 2.56 GiB (83%)
Title : D.E.B.S.2004.720p.WEB-DL.DD5.1.H264-FGT
Language : English
Default : Yes
Forced : No
Color range : Limited
Color primaries : BT.709
Transfer characteristics : BT.709
Matrix coefficients : BT.709

Audio #1
ID : 2
Format : AC-3
Format/Info : Audio Coding 3
Mode extension : CM (complete main)
Format settings, Endianness : Big
Codec ID : A_AC3
Duration : 1 h 31 min
Bit rate mode : Constant
Bit rate : 448 kb/s
Channel(s) : 6 channels
Channel positions : Front: L C R, Side: L R, LFE
Sampling rate : 48.0 kHz
Frame rate : 31.250 FPS (1536 spf)
Compression mode : Lossy
Delay relative to video : 800 ms
Stream size : 293 MiB (9%)
Language : Russian
Default : Yes
Forced : No

Audio #2
ID : 3
Format : AC-3
Format/Info : Audio Coding 3
Mode extension : CM (complete main)
Format settings, Endianness : Big
Codec ID : A_AC3
Duration : 1 h 31 min
Bit rate mode : Constant
Bit rate : 384 kb/s
Channel(s) : 6 channels
Channel positions : Front: L C R, Side: L R, LFE
Sampling rate : 48.0 kHz
Frame rate : 31.250 FPS (1536 spf)
Compression mode : Lossy
Delay relative to video : 28 ms
Stream size : 251 MiB (8%)
Title : D.E.B.S.2004.720p.WEB-DL.DD5.1.H264-FGT
Language : English
Default : No
Forced : No

Text
ID : 4
Format : UTF-8
Codec ID : S_TEXT/UTF8
Codec ID/Info : UTF-8 Plain Text
Duration : 1 h 28 min
Bit rate : 154 b/s
Count of elements : 2733
Stream size : 99.9 KiB (0%)
Language : English
Default : No
Forced : No

Menu
00:00:00.000 : en:Start
00:02:00.724 : en:D.E.B.S. Academy
00:04:51.724 : en:Lucy Diamond
00:09:09.724 : en:Crowded Stakeout
00:12:12.724 : en:"I vant to be dancer."
00:15:13.724 : en:Firefight
00:18:15.724 : en:Heart to Heart
00:21:48.724 : en:Tracing Amy
00:26:06.724 : en:Secret Lair
00:28:40.724 : en:Not What She Expected
00:32:28.724 : en:"Nothing happened."
00:35:49.724 : en:Sick Game
00:37:00.724 : en:The Lamb
00:42:45.724 : en:Ze Plan
00:46:47.724 : en:Kidnapped?
00:50:41.724 : en:Love Scenes
00:52:52.724 : en:Judgments
00:55:54.724 : en:Untimely Rescue
00:59:05.724 : en:"Not what you think."
01:01:40.724 : en:Cover Story
01:05:28.724 : en:The Right Thing
01:07:25.724 : en:Bad News
01:09:58.724 : en:Plan A
01:12:17.724 : en:Perfect Liar
01:13:57.724 : en:Endgame
01:18:21.724 : en:Date with the Devil
01:21:35.724 : en:"If you break her hearta€¦"
01:24:16.724 : en:Stripes
pb.wtf



Скачать Шпионки через торрент http://i5.imageban.ru/out/2017/05/31/01897bad9cb94c5ef32ade733570c3a8.jpg Скачать фильм Шпионки через торрент бесплантно в хорошем качестве Описание: Пожилые мачо с лицензией на убийство отправляются на пенсию: судьбы мира отныне решают крутые девчонки из суперсекретной ... 5 10 1
Торрент: Зарегистрирован [2017-05-31 04:09] · скачан: 76 раз
Статус: √ проверено
Размер: 3.09 GB
Как cкачать? Как скачать Шпионки через торрент | qTorrent

% Раздел Тема Автор DL S | L
Фильмы 2001-2005 [ 1.37 GB ] Шпионки / D.E.B.S [2004 DVDRip MVO лицензия] wowan2011 Скачать
1 | 0

28-11-2019 20:33  

Отключить всю рекламу на сайте

    Дорогой пользователь! Огромная просьба, поблагодарите релизера, оцените раздачу и оставьте свои комментарий, если Вы скачали Шпионки через торрент бесплатно! Внесите свою лепту в развитие PiratBit!
    Комментировать посты могут только пользователи прошедшие не сложную регистрацию
    Показать сообщения:    

    Шпионки через торрент
    Скачать бесплатно Шпионки
    Шпионки скачать торрент
    Шпионки смотреть онлайн
    Cкачать фильм Шпионки бесплатно
    Шпионки скачать торрент в хорошем качестве
    Шпионки смотреть онлайн бесплатно в хорошем качестве


    Вы не можете начинать темы
    Вы не можете отвечать на сообщения
    Вы не можете редактировать свои сообщения
    Вы не можете удалять свои сообщения
    Вы не можете голосовать в опросах
    Вы не можете прикреплять файлы к сообщениям
    Вы можете скачивать файлы